  0
SECTION
  2
HEADER
  9
$ACADVER
  1
AC1015
  9
$ACADMAINTVER
 70
    11
  9
$DWGCODEPAGE
  3
ANSI_1252
  9
$INSBASE
 10
0.0
 20
0.0
 30
0.0
  9
$EXTMIN
 10
354.0842613550598
 20
172.8134316788211
 30
-36.5987380641226
  9
$EXTMAX
 10
482.8240907564922
 20
287.9000250949757
 30
13.1017311805416
  9
$LIMMIN
 10
0.0
 20
0.0
  9
$LIMMAX
 10
420.0
 20
297.0
  9
$ORTHOMODE
 70
     0
  9
$REGENMODE
 70
     1
  9
$FILLMODE
 70
     1
  9
$QTEXTMODE
 70
     0
  9
$MIRRTEXT
 70
     1
  9
$LTSCALE
 40
1.0
  9
$ATTMODE
 70
     1
  9
$TEXTSIZE
 40
2.5
  9
$TRACEWID
 40
1.0
  9
$TEXTSTYLE
  7
Standard
  9
$CLAYER
  8
0
  9
$CELTYPE
  6
ByLayer
  9
$CECOLOR
 62
   256
  9
$CELTSCALE
 40
1.0
  9
$DISPSILH
 70
     0
  9
$DIMSCALE
 40
1.0
  9
$DIMASZ
 40
2.5
  9
$DIMEXO
 40
1.5
  9
$DIMDLI
 40
3.75
  9
$DIMRND
 40
0.0
  9
$DIMDLE
 40
0.0
  9
$DIMEXE
 40
1.25
  9
$DIMTP
 40
0.0
  9
$DIMTM
 40
0.0
  9
$DIMTXT
 40
2.5
  9
$DIMCEN
 40
2.5
  9
$DIMTSZ
 40
0.0
  9
$DIMTOL
 70
     0
  9
$DIMLIM
 70
     0
  9
$DIMTIH
 70
     0
  9
$DIMTOH
 70
     1
  9
$DIMSE1
 70
     0
  9
$DIMSE2
 70
     0
  9
$DIMTAD
 70
     1
  9
$DIMZIN
 70
     1
  9
$DIMBLK
  1

  9
$DIMASO
 70
     1
  9
$DIMSHO
 70
     1
  9
$DIMPOST
  1

  9
$DIMAPOST
  1

  9
$DIMALT
 70
     0
  9
$DIMALTD
 70
     3
  9
$DIMALTF
 40
0.03937007874016
  9
$DIMLFAC
 40
1.0
  9
$DIMTOFL
 70
     1
  9
$DIMTVP
 40
0.0
  9
$DIMTIX
 70
     0
  9
$DIMSOXD
 70
     0
  9
$DIMSAH
 70
     0
  9
$DIMBLK1
  1

  9
$DIMBLK2
  1

  9
$DIMSTYLE
  2
Standard
  9
$DIMCLRD
 70
     0
  9
$DIMCLRE
 70
     0
  9
$DIMCLRT
 70
     0
  9
$DIMTFAC
 40
1.0
  9
$DIMGAP
 40
1.0
  9
$DIMJUST
 70
     0
  9
$DIMSD1
 70
     0
  9
$DIMSD2
 70
     0
  9
$DIMTOLJ
 70
     0
  9
$DIMTZIN
 70
     1
  9
$DIMALTZ
 70
     0
  9
$DIMALTTZ
 70
     0
  9
$DIMUPT
 70
     0
  9
$DIMDEC
 70
     0
  9
$DIMTDEC
 70
     1
  9
$DIMALTU
 70
     2
  9
$DIMALTTD
 70
     3
  9
$DIMTXSTY
  7
Standard
  9
$DIMAUNIT
 70
     0
  9
$DIMADEC
 70
     0
  9
$DIMALTRND
 40
0.0
  9
$DIMAZIN
 70
     0
  9
$DIMDSEP
 70
    46
  9
$DIMATFIT
 70
     3
  9
$DIMFRAC
 70
     0
  9
$DIMLDRBLK
  1

  9
$DIMLUNIT
 70
     2
  9
$DIMLWD
 70
    -2
  9
$DIMLWE
 70
    -2
  9
$DIMTMOVE
 70
     0
  9
$LUNITS
 70
     2
  9
$LUPREC
 70
     2
  9
$SKETCHINC
 40
1.0
  9
$FILLETRAD
 40
10.0
  9
$AUNITS
 70
     0
  9
$AUPREC
 70
     0
  9
$MENU
  1
.
  9
$ELEVATION
 40
0.0
  9
$PELEVATION
 40
0.0
  9
$THICKNESS
 40
0.0
  9
$LIMCHECK
 70
     0
  9
$CHAMFERA
 40
10.0
  9
$CHAMFERB
 40
10.0
  9
$CHAMFERC
 40
20.0
  9
$CHAMFERD
 40
0.0
  9
$SKPOLY
 70
     0
  9
$TDCREATE
 40
2452698.683146967
  9
$TDUCREATE
 40
2452698.641480301
  9
$TDUPDATE
 40
2453909.401599838
  9
$TDUUPDATE
 40
2453909.359933171
  9
$TDINDWG
 40
0.1456704167
  9
$TDUSRTIMER
 40
0.1456698380
  9
$USRTIMER
 70
     1
  9
$ANGBASE
 50
0.0
  9
$ANGDIR
 70
     0
  9
$PDMODE
 70
     0
  9
$PDSIZE
 40
0.0
  9
$PLINEWID
 40
0.0
  9
$SPLFRAME
 70
     0
  9
$SPLINETYPE
 70
     6
  9
$SPLINESEGS
 70
     8
  9
$HANDSEED
  5
5DF5
  9
$SURFTAB1
 70
     6
  9
$SURFTAB2
 70
     6
  9
$SURFTYPE
 70
     6
  9
$SURFU
 70
     6
  9
$SURFV
 70
     6
  9
$UCSBASE
  2

  9
$UCSNAME
  2

  9
$UCSORG
 10
0.0
 20
0.0
 30
0.0
  9
$UCSXDIR
 10
1.0
 20
0.0
 30
0.0
  9
$UCSYDIR
 10
0.0
 20
1.0
 30
0.0
  9
$UCSORTHOREF
  2

  9
$UCSORTHOVIEW
 70
     0
  9
$UCSORGTOP
 10
0.0
 20
0.0
 30
0.0
  9
$UCSORGBOTTOM
 10
0.0
 20
0.0
 30
0.0
  9
$UCSORGLEFT
 10
0.0
 20
0.0
 30
0.0
  9
$UCSORGRIGHT
 10
0.0
 20
0.0
 30
0.0
  9
$UCSORGFRONT
 10
0.0
 20
0.0
 30
0.0
  9
$UCSORGBACK
 10
0.0
 20
0.0
 30
0.0
  9
$PUCSBASE
  2

  9
$PUCSNAME
  2

  9
$PUCSORG
 10
0.0
 20
0.0
 30
0.0
  9
$PUCSXDIR
 10
1.0
 20
0.0
 30
0.0
  9
$PUCSYDIR
 10
0.0
 20
1.0
 30
0.0
  9
$PUCSORTHOREF
  2

  9
$PUCSORTHOVIEW
 70
     0
  9
$PUCSORGTOP
 10
0.0
 20
0.0
 30
0.0
  9
$PUCSORGBOTTOM
 10
0.0
 20
0.0
 30
0.0
  9
$PUCSORGLEFT
 10
0.0
 20
0.0
 30
0.0
  9
$PUCSORGRIGHT
 10
0.0
 20
0.0
 30
0.0
  9
$PUCSORGFRONT
 10
0.0
 20
0.0
 30
0.0
  9
$PUCSORGBACK
 10
0.0
 20
0.0
 30
0.0
  9
$USERI1
 70
     0
  9
$USERI2
 70
     0
  9
$USERI3
 70
     0
  9
$USERI4
 70
     0
  9
$USERI5
 70
     0
  9
$USERR1
 40
0.0
  9
$USERR2
 40
0.0
  9
$USERR3
 40
0.0
  9
$USERR4
 40
0.0
  9
$USERR5
 40
0.0
  9
$WORLDVIEW
 70
     1
  9
$SHADEDGE
 70
     3
  9
$SHADEDIF
 70
    70
  9
$TILEMODE
 70
     1
  9
$MAXACTVP
 70
    64
  9
$PINSBASE
 10
0.0
 20
0.0
 30
0.0
  9
$PLIMCHECK
 70
     0
  9
$PEXTMIN
 10
89.80517333270759
 20
42.50244702418512
 30
0.0
  9
$PEXTMAX
 10
377.1028050135308
 20
275.6255483507391
 30
0.0
  9
$PLIMMIN
 10
-0.6488269631991859
 20
2.634989174607843
  9
$PLIMMAX
 10
420.6546817638131
 20
300.6828980762912
  9
$UNITMODE
 70
     0
  9
$VISRETAIN
 70
     1
  9
$PLINEGEN
 70
     0
  9
$PSLTSCALE
 70
     1
  9
$TREEDEPTH
 70
  3020
  9
$CMLSTYLE
  2
Standard
  9
$CMLJUST
 70
     0
  9
$CMLSCALE
 40
20.0
  9
$PROXYGRAPHICS
 70
     1
  9
$MEASUREMENT
 70
     1
  9
$CELWEIGHT
370
    -1
  9
$ENDCAPS
280
     0
  9
$JOINSTYLE
280
     0
  9
$LWDISPLAY
290
     0
  9
$INSUNITS
 70
     4
  9
$HYPERLINKBASE
  1

  9
$STYLESHEET
  1

  9
$XEDIT
290
     1
  9
$CEPSNTYPE
380
     0
  9
$PSTYLEMODE
290
     1
  9
$FINGERPRINTGUID
  2
{F09EB1B0-A59E-11D4-812D-0000E8450F02}
  9
$VERSIONGUID
  2
{2D58D011-21E4-4E4D-AE0A-21D75318EC0C}
  9
$EXTNAMES
290
     1
  9
$PSVPSCALE
 40
0.0
  9
$OLESTARTUP
290
     0
  0
ENDSEC
  0
SECTION
  2
CLASSES
  0
CLASS
  1
ACDBDICTIONARYWDFLT
  2
AcDbDictionaryWithDefault
  3
AutoCAD 2000
 90
        0
280
     0
281
     0
  0
CLASS
  1
ACDBPLACEHOLDER
  2
AcDbPlaceHolder
  3
AutoCAD 2000
 90
        0
280
     0
281
     0
  0
CLASS
  1
LAYOUT
  2
AcDbLayout
  3
AutoCAD 2000
 90
        0
280
     0
281
     0
  0
CLASS
  1
ACME_DOCUMENT
  2
AcMeDbDoc
  3
AcMeServices
 90
        0
280
     0
281
     0
  0
CLASS
  1
ACMESCOPE
  2
AcMeScope
  3
AcMeServices
 90
        0
280
     0
281
     0
  0
CLASS
  1
ACMECOMMANDHISTORY
  2
AcMeCommandHistory
  3
AcMeServices
 90
        0
280
     0
281
     0
  0
CLASS
  1
DICTIONARYVAR
  2
AcDbDictionaryVar
  3
AutoCAD 2000
 90
        0
280
     0
281
     0
  0
CLASS
  1
ACIMSYSVARMAN
  2
AcImSysVarManager
  3
AcMeServices
 90
        0
280
     0
281
     0
  0
CLASS
  1
ACIMREALSYSVAR
  2
AcImRealSysVar
  3
AcMeServices
 90
        0
280
     0
281
     0
  0
CLASS
  1
ACIMINTSYSVAR
  2
AcImIntSysVar
  3
AcMeServices
 90
        0
280
     0
281
     0
  0
CLASS
  1
ACMEDRAWINGMAN
  2
AcMeDrawingMan
  3
AcMeServices
 90
        0
280
     0
281
     0
  0
CLASS
  1
ACMEVIEW
  2
AcMeView
  3
AcMeServices
 90
        0
280
     0
281
     0
  0
CLASS
  1
ACDBENTITYCACHE
  2
AcMeEntityCache
  3
AcMeServices
 90
        0
280
     0
281
     0
  0
CLASS
  1
GSMANAGER
  2
AcMeGSManager
  3
AcMeServices
 90
        0
280
     0
281
     0
  0
CLASS
  1
AmdtInternalReactor
  2
AmdtInternalReactor
  3
AcMeServices
 90
        0
280
     0
281
     0
  0
CLASS
  1
ACMESTATEMGR
  2
AcMeStateMgr
  3
AcMeServices
 90
        0
280
     0
281
     0
  0
CLASS
  1
ACGREFMASTER
  2
AcGrefMaster
  3
AcAttribServices
 90
        0
280
     0
281
     0
  0
CLASS
  1
AM_DRAWING_MGR
  2
AcDmDwgMgr
  3
AcMechDwgViewMgmt
 90
        0
280
     0
281
     0
  0
CLASS
  1
AM_DWG_DOCUMENT
  2
AcDmDwgDocument
  3
AcMechDwgViewMgmt
 90
        0
280
     0
281
     0
  0
CLASS
  1
AM_DWG_SHEET
  2
AcDmSheet
  3
AcMechDwgViewMgmt
 90
        0
280
     0
281
     0
  0
CLASS
  1
AM_VIEWDIMPARMAP
  2
AcDmViewDimParMap
  3
AcMechDwgViewMgmt
 90
        0
280
     0
281
     0
  0
CLASS
  1
AM_DWGMGR_NAME
  2
AcDmDwgMgrName
  3
AcMechDwgViewMgmt
 90
        0
280
     0
281
     0
  0
CLASS
  1
ACME_DATABASE
  2
AcMeDbDatabase
  3
AcMeServices
 90
        0
280
     0
281
     0
  0
CLASS
  1
ACRFINSADJUSTERMGR
  2
AcRfInsAdjusterMgr
  3
AcMeServices
 90
        0
280
     0
281
     0
  0
CLASS
  1
ACGREFMASTER
  2
AcGrefacadMaster
  3
AcGrefServices
 90
        0
280
     0
281
     0
  0
CLASS
  1
AMDTMENUSTATEMGR
  2
AmdtMenuStateMgr
  3
McadcomServices
 90
        0
280
     0
281
     0
  0
CLASS
  1
AMDTMCOMMENUSTATE
  2
AmdtMcomMenuState
  3
McadcomServices
 90
        0
280
     0
281
     0
  0
CLASS
  1
AMIMASTER
  2
AmiMaster
  3
AmiServices
 90
        0
280
     0
281
     0
  0
CLASS
  1
AMGSETTINGSOBJ
  2
AmgSettingsObj
  3
"AcadM|Product Description: AutoCAD Mechanical 2000|Company: Autodesk"
 90
        0
280
     0
281
     0
  0
CLASS
  1
ASAPP
  2
AcAsAppObject
  3
AutoSurfServices
 90
        0
280
     0
281
     0
  0
CLASS
  1
IM_STATIC_MAN
  2
AcImStaticVarManager
  3
AcMeServices
 90
        0
280
     0
281
     0
  0
CLASS
  1
ACIMSTRSYSVAR
  2
AcImStrSysVar
  3
AcMeServices
 90
        0
280
     0
281
     0
  0
CLASS
  1
ACIMDBLSTATICVAR
  2
AcImDblStaticVar
  3
AcMeServices
 90
        0
280
     0
281
     0
  0
CLASS
  1
ACIMSTRSTATICVAR
  2
AcImStrStaticVar
  3
AcMeServices
 90
        0
280
     0
281
     0
  0
CLASS
  1
ACIMINTSTATICVAR
  2
AcImIntStaticVar
  3
AcMeServices
 90
        0
280
     0
281
     0
  0
CLASS
  1
ACASGREFMASTER
  2
AcAsGrefMaster
  3
AutoSurfResolverServices
 90
        0
280
     0
281
     0
  0
CLASS
  1
ACADGREFMODULE
  2
AcAdGrefModule
  3
AdGrefServices
 90
        0
280
     0
281
     0
  0
CLASS
  1
AmdtMApiSurfModule
  2
AmdtMApiSurfModule
  3
MApiSurfServices
 90
        0
280
     0
281
     0
  0
CLASS
  1
MAPIAMMOUDLE
  2
MApiAmModule
  3
MApiAmServices
 90
        0
280
     0
281
     0
  0
CLASS
  1
AMDTADMENUSTATE
  2
AmdtAdMenuState
  3
DesignerServices
 90
        0
280
     0
281
     0
  0
CLASS
  1
ADAPPL
  2
AcAdAppl
  3
DesignerServices
 90
        0
280
     0
281
     0
  0
CLASS
  1
DEPMGR
  2
AcAdDepMgr
  3
DesignerServices
 90
        0
280
     0
281
     0
  0
CLASS
  1
PARAMMGR
  2
AcAdParamMgr
  3
DesignerServices
 90
        0
280
     0
281
     0
  0
CLASS
  1
PARAMSCOPE
  2
AcAdParamScope
  3
DesignerServices
 90
        0
280
     0
281
     0
  0
CLASS
  1
NAMEDAPPL
  2
AcAdNamedAppl
  3
DesignerServices
 90
        0
280
     0
281
     0
  0
CLASS
  1
ADHNTMPLT
  2
AdHoleNoteTemplateMgr
  3
DesignerServices
 90
        0
280
     0
281
     0
  0
CLASS
  1
AM_HNTEMPLATE_MGR_NAME
  2
AdHoleNoteTemplateMgrName
  3
DesignerServices
 90
        0
280
     0
281
     0
  0
CLASS
  1
AMDTDMMENUSTATE
  2
AmdtDmMenuState
  3
AcMechDwgViewMgmt
 90
        0
280
     0
281
     0
  0
CLASS
  1
MAPIADMODULE
  2
MApiAdModule
  3
MApiAdServices
 90
        0
280
     0
281
     0
  0
CLASS
  1
AMDTAMMENUSTATE
  2
AmdtAmMenuState
  3
DesignerAssemblies
 90
        0
280
     0
281
     0
  0
CLASS
  1
ACAMPROJECT
  2
AcAmProject
  3
DesignerAssemblies
 90
        0
280
     0
281
     0
  0
CLASS
  1
ACAMGRCOMPDEF
  2
AcAmGrCompDef
  3
DesignerAssemblies
 90
        0
280
     0
281
     0
  0
CLASS
  1
ACCMCONTEXT
  2
AcCmContext
  3
DesignerAssemblies
 90
        0
280
     0
281
     0
  0
CLASS
  1
ACAMCOMPDEF
  2
AcAmCompDef
  3
DesignerAssemblies
 90
        0
280
     0
281
     0
  0
CLASS
  1
ACAMCOMPDEFMGR
  2
AcAmCompDefMgr
  3
DesignerAssemblies
 90
        0
280
     0
281
     0
  0
CLASS
  1
AMCONTEXTMGR
  2
AcAmContextMgr
  3
DesignerAssemblies
 90
        0
280
     0
281
     0
  0
CLASS
  1
ACAMCONTEXTMODELER
  2
AcAmContextModeler
  3
DesignerAssemblies
 90
        0
280
     0
281
     0
  0
CLASS
  1
ACMDATADICTIONARY
  2
AcmDataDictionary
  3
"AcmSymBB|Product Description: AutoCAD Mechanical 2000|Company: Autodesk"
 90
        0
280
     0
281
     0
  0
CLASS
  1
ACMDATAENTRYBLOCK
  2
AcmDataEntryBlock
  3
"AcmSymBB|Product Description: AutoCAD Mechanical 2000|Company: Autodesk"
 90
        0
280
     0
281
     0
  0
CLASS
  1
CATALOGSTATE
  2
AcAmCatalogState
  3
DesignerAssemblies
 90
        0
280
     0
281
     0
  0
CLASS
  1
ACAMGRCOMPDEFSET
  2
AcAmGrCompDefSet
  3
DesignerAssemblies
 90
        0
280
     0
281
     0
  0
CLASS
  1
AMDTBROWSERDBTAB
  2
AmdtBrowserDbTab
  3
McadcomServices
 90
        0
280
     0
281
     0
  0
CLASS
  1
CBROWSERAPPOBJECT
  2
CBrowserAppObject
  3
McadcomServices
 90
        0
280
     0
281
     0
  0
CLASS
  1
DM_PLACEHOLDER
  2
AcDmSelsetPlaceholder
  3
AcMechDwgViewMgmt
 90
        0
280
     0
281
     0
  0
CLASS
  1
AMGOBJPROPCFG
  2
AmgObjPropCfg
  3
"AmgLay|Product Description: AutoCAD Mechanical 2000|Company: Autodesk"
 90
        1
280
     0
281
     0
  0
CLASS
  1
LAYER_INDEX
  2
AcDbLayerIndex
  3
AutoCAD 2000
 90
        0
280
     0
281
     0
  0
CLASS
  1
IDBUFFER
  2
AcDbIdBuffer
  3
AutoCAD 2000
 90
        0
280
     0
281
     0
  0
CLASS
  1
ACAMGFILTERDAT
  2
AcAmgFilterDat
  3
"AcadM|Product Description: AutoCAD Mechanical 2000|Company: Autodesk"
 90
        0
280
     0
281
     0
  0
CLASS
  1
ACMSTANDARDISO
  2
AcmStandardISO
  3
"Amdt_StdImp|Product Description: AutoCAD Mechanical 2000|Company: Autodesk"
 90
        0
280
     0
281
     0
  0
CLASS
  1
AMDTEDGESTANDARDISO
  2
AmdtEdgeStdISO
  3
"Amdt_StdImp|Product Description: AutoCAD Mechanical 2000|Company: Autodesk"
 90
        0
280
     0
281
     0
  0
CLASS
  1
ACMSURFSTANDARDISO
  2
AcmSurfTextStdISO
  3
"Amdt_StdImp|Product Description: AutoCAD Mechanical 2000|Company: Autodesk"
 90
        0
280
     0
281
     0
  0
CLASS
  1
ACMFCFSTANDARDISO
  2
AcmFCFStdISO
  3
"Amdt_StdImp|Product Description: AutoCAD Mechanical 2000|Company: Autodesk"
 90
        0
280
     0
281
     0
  0
CLASS
  1
ACMWELDSTANDARDISO
  2
AcmWeldingStdISO
  3
"Amdt_StdImp|Product Description: AutoCAD Mechanical 2000|Company: Autodesk"
 90
        0
280
     0
281
     0
  0
CLASS
  1
ACMIDSTANDARDISO
  2
AcmIdStdISO
  3
"Amdt_StdImp|Product Description: AutoCAD Mechanical 2000|Company: Autodesk"
 90
        0
280
     0
281
     0
  0
CLASS
  1
ACMDATUMSTANDARDISO
  2
AcmDatumStdISO
  3
"Amdt_StdImp|Product Description: AutoCAD Mechanical 2000|Company: Autodesk"
 90
        0
280
     0
281
     0
  0
CLASS
  1
ACMBOMSTANDARDISO
  2
AcmBOMStdISO
  3
"Amdt_StdImp|Product Description: AutoCAD Mechanical 2000|Company: Autodesk"
 90
        0
280
     0
281
     0
  0
CLASS
  1
ACMDETAILSTANDARDISO
  2
AmdtDetailSymStdISO
  3
"Amdt_StdImp|Product Description: AutoCAD Mechanical 2000|Company: Autodesk"
 90
        0
280
     0
281
     0
  0
CLASS
  1
ACMSECTIONSTANDARDISO
  2
AmdtSectionSymStdISO
  3
"Amdt_StdImp|Product Description: AutoCAD Mechanical 2000|Company: Autodesk"
 90
        0
280
     0
281
     0
  0
CLASS
  1
ACMCENTERLINESTANDARDISO
  2
AmdtCenterLineStdISO
  3
"Amdt_StdImp|Product Description: AutoCAD Mechanical 2000|Company: Autodesk"
 90
        0
280
     0
281
     0
  0
CLASS
  1
ACMTHREADLINESTANDARDISO
  2
AmdtThreadLineStdISO
  3
"Amdt_StdImp|Product Description: AutoCAD Mechanical 2000|Company: Autodesk"
 90
        0
280
     0
281
     0
  0
CLASS
  1
"AcAmgLayStd"
  2
AcAmgLayStd
  3
"AcAmgLayStd|Product Description: AutoCAD Mechanical 2000|Company: Autodesk"
 90
        0
280
     0
281
     0
  0
CLASS
  1
"AcAmgDimStd"
  2
AcAmgDimStd
  3
"AcAmgDimStd|Product Description: AutoCAD Mechanical 2000|Company: Autodesk"
 90
        0
280
     0
281
     0
  0
CLASS
  1
AcAmgTitleStd
  2
AcAmgTitleStd
  3
"TITLEAPP"
 90
        0
280
     0
281
     0
  0
CLASS
  1
PLOTSETTINGS
  2
AcDbPlotSettings
  3
AutoCAD 2000
 90
        0
280
     0
281
     0
  0
CLASS
  1
ACAMEXTERNALCOMPDEF
  2
AcAmExternalCompDef
  3
DesignerAssemblies
 90
    32768
280
     0
281
     0
  0
CLASS
  1
ACCMBODY
  2
AcCmBody
  3
DesignerAssemblies
 90
        0
280
     0
281
     0
  0
CLASS
  1
ACAMCOMPENT
  2
AcAmCompEnt
  3
DesignerAssemblies
 90
        0
280
     0
281
     1
  0
CLASS
  1
ACAMCOMPFEEDBACK
  2
AcAmCompFeedback
  3
DesignerAssemblies
 90
        0
280
     0
281
     0
  0
CLASS
  1
ACAMCOMP
  2
AcAmComp
  3
DesignerAssemblies
 90
        0
280
     0
281
     0
  0
CLASS
  1
ACAMCOMPENTCLONE
  2
AcAmCompEntClone
  3
DesignerAssemblies
 90
        0
280
     0
281
     1
  0
CLASS
  1
ACAMCLONEREACTOR
  2
AcAmGrCompCloneReactor
  3
DesignerAssemblies
 90
        0
280
     0
281
     0
  0
CLASS
  1
ADPART
  2
AcAdPart
  3
DesignerServices
 90
        0
280
     0
281
     1
  0
CLASS
  1
WORKPLANEDISPLAYMGR
  2
AcAdDisplayMgr
  3
DesignerServices
 90
        0
280
     0
281
     0
  0
CLASS
  1
ADBASE
  2
AcAdBase
  3
DesignerServices
 90
        0
280
     0
281
     0
  0
CLASS
  1
ADDATUMPLANEABS
  2
AcAdDatumPlaneAbs
  3
DesignerServices
 90
        0
280
     0
281
     0
  0
CLASS
  1
ADDATUMAXISABS
  2
AcAdDatumAxisAbs
  3
DesignerServices
 90
        0
280
     0
281
     0
  0
CLASS
  1
PARAM
  2
AcAdParam
  3
DesignerServices
 90
        0
280
     0
281
     0
  0
CLASS
  1
BODYID
  2
AcAdBodyId
  3
DesignerServices
 90
        0
280
     0
281
     0
  0
CLASS
  1
ADDATUMORIENTEDPLANE
  2
AcAdDatumOrientedPlane
  3
DesignerServices
 90
        0
280
     0
281
     0
  0
CLASS
  1
ACADCONSGROUP
  2
AcAdConstraintGroup
  3
DesignerServices
 90
        0
280
     0
281
     0
  0
CLASS
  1
ACADREFLINEACAD
  2
AcAdVirtualReferenceLine
  3
DesignerServices
 90
        0
280
     0
281
     0
  0
CLASS
  1
ACADCONSLINE
  2
AcAdConstrainedLine
  3
DesignerServices
 90
        0
280
     0
281
     0
  0
CLASS
  1
ACADARCACAD
  2
AcAdVirtualArcAcad
  3
DesignerServices
 90
        0
280
     0
281
     0
  0
CLASS
  1
ACADCONSCIRCLE
  2
AcAdConstrainedCircle
  3
DesignerServices
 90
        0
280
     0
281
     0
  0
CLASS
  1
ADPCURCNS
  2
AcAdPointCurveConstr
  3
DesignerServices
 90
        0
280
     0
281
     0
  0
CLASS
  1
ACADCONSPOINT
  2
AcAdConstrainedPoint
  3
DesignerServices
 90
        0
280
     0
281
     0
  0
CLASS
  1
ADCTRPTCNS
  2
AcAdCenterPointConstr
  3
DesignerServices
 90
        0
280
     0
281
     0
  0
CLASS
  1
ADTANCNS
  2
AcAdTangentConstr
  3
DesignerServices
 90
        0
280
     0
281
     0
  0
CLASS
  1
ADCONCCNS
  2
AcAdConcentricConstr
  3
DesignerServices
 90
        0
280
     0
281
     0
  0
CLASS
  1
ADEQRADCNS
  2
AcAdEqualRadiusConstr
  3
DesignerServices
 90
        0
280
     0
281
     0
  0
CLASS
  1
ACAD_FIXCONSTRAINT
  2
AcAdFixedConstraint
  3
DesignerServices
 90
        0
280
     0
281
     0
  0
CLASS
  1
ADPARCNS
  2
AcAdParallelConstr
  3
DesignerServices
 90
        0
280
     0
281
     0
  0
CLASS
  1
ADHDISTCNS
  2
AcAdHorizontalDistanceConstr
  3
DesignerServices
 90
        0
280
     0
281
     0
  0
CLASS
  1
ADRADCNS
  2
AcAdAcadRadiusConstr
  3
DesignerServices
 90
        0
280
     0
281
     0
  0
CLASS
  1
ADVDISTCNS
  2
AcAdVerticalDistanceConstr
  3
DesignerServices
 90
        0
280
     0
281
     0
  0
CLASS
  1
ADDIACNS
  2
AcAdAcadDiameterConstr
  3
DesignerServices
 90
        0
280
     0
281
     0
  0
CLASS
  1
ADYEQUALCNS
  2
AcAdYEqualConstr
  3
DesignerServices
 90
        0
280
     0
281
     0
  0
CLASS
  1
ACADLINEACAD
  2
AcAdVirtualBoundedLineAcad
  3
DesignerServices
 90
        0
280
     0
281
     0
  0
CLASS
  1
ACADCIRCLEACAD
  2
AcAdVirtualCircleAcad
  3
DesignerServices
 90
        0
280
     0
281
     0
  0
CLASS
  1
ADHORCNS
  2
AcAdHorizontalConstr
  3
DesignerServices
 90
        0
280
     0
281
     0
  0
CLASS
  1
ADVERCNS
  2
AcAdVerticalConstr
  3
DesignerServices
 90
        0
280
     0
281
     0
  0
CLASS
  1
ACADIMPPTACAD
  2
AcAdVirtualImplicitPoint
  3
DesignerServices
 90
        0
280
     0
281
     0
  0
CLASS
  1
ADCLPROF2D
  2
AcAdClosedProfile2d
  3
DesignerServices
 90
        0
280
     0
281
     0
  0
CLASS
  1
DEPEDGEFEATUREORDERING
  2
AcAdDepEdgeFeatureOrdering
  3
DesignerServices
 90
        0
280
     0
281
     0
  0
CLASS
  1
ACADVOLFEATWITHTRIM
  2
AcAdVolFeatWithTrim
  3
DesignerServices
 90
        0
280
     0
281
     0
  0
CLASS
  1
CIRREFID
  2
AcAdCircleRefId
  3
DesignerServices
 90
        0
280
     0
281
     0
  0
CLASS
  1
CNRREFID
  2
AcAdCornerId
  3
DesignerServices
 90
        0
280
     0
281
     0
  0
CLASS
  1
ACADCIRCDEPID
  2
AcAdVirtualCircleDepId
  3
DesignerServices
 90
        0
280
     0
281
     0
  0
CLASS
  1
AMDT_OPEN_PROFILE
  2
AmdtOpenProfile
  3
DesignerServices
 90
        0
280
     0
281
     0
  0
CLASS
  1
ACADBENDFEAT
  2
AcAdBendFeat
  3
DesignerServices
 90
        0
280
     0
281
     0
  0
CLASS
  1
DEPEDGESECONDARYDEPID
  2
AcAdDepEdgeSecondaryDepId
  3
DesignerServices
 90
        0
280
     0
281
     0
  0
CLASS
  1
FACEID
  2
AcAdFaceId
  3
DesignerServices
 90
        0
280
     0
281
     0
  0
CLASS
  1
EDGEID
  2
AcAdEdgeId
  3
DesignerServices
 90
        0
280
     0
281
     0
  0
CLASS
  1
ACAMCLONECHILDREACTOR
  2
AcAmGrCloneChildReactor
  3
DesignerAssemblies
 90
        0
280
     0
281
     0
  0
CLASS
  1
ADPDISTCNS
  2
AcAdParallelDistanceConstr
  3
DesignerServices
 90
        0
280
     0
281
     0
  0
CLASS
  1
ADPLANEID
  2
AcAdPlaneId
  3
DesignerServices
 90
        0
280
     0
281
     0
  0
CLASS
  1
STREFID
  2
AcAdStraightRefId
  3
DesignerServices
 90
        0
280
     0
281
     0
  0
CLASS
  1
ADDATUMPLANEFACE
  2
AcAdDatumPlaneFace
  3
DesignerServices
 90
        0
280
     0
281
     0
  0
CLASS
  1
ACADLINEDEPID
  2
AcAdVirtualLineDepId
  3
DesignerServices
 90
        0
280
     0
281
     0
  0
CLASS
  1
ADBDISTCNS
  2
AcAdAcadAngleConstr
  3
DesignerServices
 90
        0
280
     0
281
     0
  0
CLASS
  1
ADCOLNCNS
  2
AcAdColinearConstr
  3
DesignerServices
 90
        0
280
     0
281
     0
  0
CLASS
  1
ADFILLET
  2
AcAdFillet
  3
DesignerServices
 90
        0
280
     0
281
     0
  0
CLASS
  1
SILEDGEID
  2
AcAdSilhouetteEdgeId
  3
DesignerServices
 90
        0
280
     0
281
     0
  0
CLASS
  1
ADXEQUALCNS
  2
AcAdXEqualConstr
  3
DesignerServices
 90
        0
280
     0
281
     0
  0
CLASS
  1
HVREFID
  2
AcAdHVRefId
  3
DesignerServices
 90
        0
280
     0
281
     0
  0
CLASS
  1
ACADLINEDEPID
  2
AcAdVirtualPointDepId
  3
DesignerServices
 90
        0
280
     0
281
     0
  0
CLASS
  1
ADSTRAIGHTID
  2
AcAdStraightId
  3
DesignerServices
 90
        0
280
     0
281
     0
  0
CLASS
  1
ADDATUMAXISEDGE
  2
AcAdDatumAxisEdge
  3
DesignerServices
 90
        0
280
     0
281
     0
  0
CLASS
  1
OSTREFID
  2
AcAdOrientedStraightRefId
  3
DesignerServices
 90
        0
280
     0
281
     0
  0
CLASS
  1
ADDATUMPOINT2EDGES
  2
AcAdDatumPoint2Edges
  3
DesignerServices
 90
        0
280
     0
281
     0
  0
CLASS
  1
ADHOLEFEAT
  2
AcAdHoleFeat
  3
DesignerServices
 90
        0
280
     0
281
     0
  0
CLASS
  1
ADDATUMPOINT2HOLES
  2
AcAdDatumPoint2Holes
  3
DesignerServices
 90
        0
280
     0
281
     0
  0
CLASS
  1
ADEQUALLENGTHCNS
  2
AcAdEqualLengthConstr
  3
DesignerServices
 90
        0
280
     0
281
     0
  0
CLASS
  1
DATUMPLANEDISPLAY
  2
AcAdDatumPlaneDisplay
  3
DesignerServices
 90
        0
280
     0
281
     1
  0
CLASS
  1
ADDATUMPLANEAXISPLANE
  2
AcAdDatumPlaneAxisPlane
  3
DesignerServices
 90
        0
280
     0
281
     0
  0
CLASS
  1
ADVIRTUALPOINTWORKPOINTFREE
  2
AcAdVirtualPointWorkPointFree
  3
DesignerServices
 90
        0
280
     0
281
     0
  0
CLASS
  1
ADWORKPOINTDISPLAY
  2
AcAdWorkPointDisplay
  3
DesignerServices
 90
        0
280
     0
281
     1
  0
CLASS
  1
ADWORKPOINTSKETCH
  2
AcAdWorkPointSketch
  3
DesignerServices
 90
        0
280
     0
281
     0
  0
CLASS
  1
ACCMINSERTPLPL
  2
AcCmInsertPlPl
  3
AcCmServices
 90
        0
280
     0
281
     0
  0
CLASS
  1
ACADPARTCIRCEDGRES
  2
AcAdPartCircEdgRes
  3
AdGrefServices
 90
        0
280
     0
281
     0
  0
CLASS
  1
ACCMDISTPLPL
  2
AcCmDistPlPl
  3
DesignerAssemblies
 90
        0
280
     0
281
     0
  0
CLASS
  1
ACADPARTPLANARFACERES
  2
AcAdPartPlanarFaceRes
  3
AdGrefServices
 90
        0
280
     0
281
     0
  0
CLASS
  1
ACRFINSADJ
  2
AcRfInsAdjuster
  3
AcMeServices
 90
        0
280
     0
281
     0
  0
CLASS
  1
ACAMEXPR
  2
AcAmExpr
  3
DesignerAssemblies
 90
        0
280
     0
281
     0
  0
CLASS
  1
ACCMCONSTREACTOR
  2
AcCmConstraintReactor
  3
DesignerAssemblies
 90
        0
280
     0
281
     0
  0
CLASS
  1
ADEXTRUSIONBLIND
  2
AcAdExtrusionBlind
  3
DesignerServices
 90
        0
280
     0
281
     0
  0
CLASS
  1
ADPLANEID
  2
AcAdSurfGeomId
  3
DesignerServices
 90
        0
280
     0
281
     0
  0
CLASS
  1
ADDATUMAXISCENTER
  2
AcAdDatumAxisCenter
  3
DesignerServices
 90
        0
280
     0
281
     0
  0
CLASS
  1
ADDATUMPOINTAXISPLANE
  2
AcAdDatumPointAxisPlane
  3
DesignerServices
 90
        0
280
     0
281
     0
  0
CLASS
  1
ADHOLLOWFEAT
  2
AcAdHollowFeat
  3
DesignerServices
 90
        0
280
     0
281
     0
  0
CLASS
  1
ADREVOLUTIONFULL
  2
AcAdRevolutionFull
  3
DesignerServices
 90
        0
280
     0
281
     0
  0
CLASS
  1
ADLDISTCNS
  2
AcAdLinearDistanceConstr
  3
DesignerServices
 90
        0
280
     0
281
     0
  0
CLASS
  1
ADEXTRUSIONTHRU
  2
AcAdExtrusionThru
  3
DesignerServices
 90
        0
280
     0
281
     0
  0
CLASS
  1
ACADPARTLINEDGRES
  2
AcAdPartLinEdgRes
  3
AdGrefServices
 90
        0
280
     0
281
     0
  0
CLASS
  1
ACMEAXIS
  2
AcImAxisDisplay
  3
AcMeServices
 90
    32768
280
     0
281
     1
  0
CLASS
  1
ACMEPOINT
  2
AcImPointDisplay
  3
AcMeServices
 90
    32768
280
     0
281
     1
  0
CLASS
  1
ACMELINEARARROW
  2
AcImLinearArrowDisplay
  3
AcMeServices
 90
    32768
280
     0
281
     1
  0
CLASS
  1
ACADPARTCYLINDERFACERES
  2
AcAdPartCylinderFaceRes
  3
AdGrefServices
 90
        0
280
     0
281
     0
  0
CLASS
  1
ACCMDISTLNLN
  2
AcCmDistLnLn
  3
DesignerAssemblies
 90
        0
280
     0
281
     0
  0
CLASS
  1
ACMEROTATIONARROW
  2
AcImRotationArrowDisplay
  3
AcMeServices
 90
    32768
280
     0
281
     1
  0
CLASS
  1
ACMEPLINE
  2
AcImPlineDisplay
  3
AcMeServices
 90
    32768
280
     0
281
     1
  0
CLASS
  1
ACCMANGVECVEC
  2
AcCmAngVecVec
  3
DesignerAssemblies
 90
        0
280
     0
281
     0
  0
CLASS
  1
ACCMTANCLPL
  2
AcCmTanClPl
  3
AcCmServices
 90
        0
280
     0
281
     0
  0
CLASS
  1
ACCMDISTLNPL
  2
AcCmDistLnPl
  3
AcCmServices
 90
        0
280
     0
281
     0
  0
CLASS
  1
ACADPARTCONICALFACERES
  2
AcAdPartConicalFaceRes
  3
AdGrefServices
 90
    32768
280
     0
281
     0
  0
CLASS
  1
ACMECIRCARC
  2
AcImCircArcDisplay
  3
AcMeServices
 90
    32768
280
     0
281
     1
  0
CLASS
  1
ACAMGRBLOCKRECORD
  2
AcAmGrBlockRecord
  3
DesignerAssemblies
 90
        0
280
     0
281
     0
  0
CLASS
  1
ACAMVIEWREACTOR
  2
AcAmViewReactor
  3
DesignerAssemblies
 90
        0
280
     0
281
     0
  0
CLASS
  1
AMVIEW
  2
AcAmView
  3
DesignerAssemblies
 90
        0
280
     0
281
     0
  0
CLASS
  1
ACAMVIEWCONTEXT
  2
AcAmViewContext
  3
DesignerAssemblies
 90
        0
280
     0
281
     0
  0
CLASS
  1
ACAMCOMPVIEWREACTOR
  2
AcAmGrCompViewReactor
  3
DesignerAssemblies
 90
        0
280
     0
281
     0
  0
CLASS
  1
ACAMCOMPENTVIEW
  2
AcAmCompEntView
  3
DesignerAssemblies
 90
        0
280
     0
281
     1
  0
CLASS
  1
ACAMVIEWENTITYFILTER
  2
AcAmViewEntityFilter
  3
DesignerAssemblies
 90
        0
280
     0
281
     0
  0
CLASS
  1
AM_GREF_PLANE
  2
AcDmGrefPlnDef
  3
AcMechDwgViewMgmt
 90
    32768
280
     0
281
     0
  0
CLASS
  1
AM_ABS_AXIS
  2
AcDmAbsAxisDef
  3
AcMechDwgViewMgmt
 90
        0
280
     0
281
     0
  0
CLASS
  1
AM_BASE_VIEW_ORIENT
  2
AcDmBaseViewOr
  3
AcMechDwgViewMgmt
 90
        0
280
     0
281
     0
  0
CLASS
  1
AM_DWG_VIEWPORT
  2
AcDmViewport
  3
AcMechDwgViewMgmt
 90
        0
280
     0
281
     0
  0
CLASS
  1
AM_VIEW_DISPLAY
  2
AcDmDwgViewDisplay
  3
AcMechDwgViewMgmt
 90
        0
280
     0
281
     0
  0
CLASS
  1
AM_CLDFLTS
  2
AcDmClDflts
  3
AcMechDwgViewMgmt
 90
        0
280
     0
281
     0
  0
CLASS
  1
AM_BASE_VIEW
  2
AcDmBaseView
  3
AcMechDwgViewMgmt
 90
        0
280
     0
281
     0
  0
CLASS
  1
ACDMPARTVIEWDATA
  2
AcDmPartViewData
  3
AcMechDwgViewMgmt
 90
        0
280
     0
281
     0
  0
CLASS
  1
ACDMDISPLAYATTRIBS
  2
AcDmDisplayAttribs
  3
AcMechDwgViewMgmt
 90
        0
280
     0
281
     0
  0
CLASS
  1
ACDMBODYINSTANCEDATA
  2
AcDmBodyInstanceData
  3
AcMechDwgViewMgmt
 90
        0
280
     0
281
     0
  0
CLASS
  1
ACDMVWEDLINE
  2
AcDmViewEdgeLine
  3
AcMechDwgViewMgmt
 90
        0
280
     0
281
     1
  0
CLASS
  1
ACDMVWEDSPLINE
  2
AcDmViewEdgeSpline
  3
AcMechDwgViewMgmt
 90
        0
280
     0
281
     1
  0
CLASS
  1
ACDMVWEDELLIPSE
  2
AcDmViewEdgeEllipse
  3
AcMechDwgViewMgmt
 90
        0
280
     0
281
     1
  0
CLASS
  1
ACDMVWEDARC
  2
AcDmViewEdgeArc
  3
AcMechDwgViewMgmt
 90
        0
280
     0
281
     1
  0
CLASS
  1
ACDMVWEDCIRC
  2
AcDmViewEdgeCircle
  3
AcMechDwgViewMgmt
 90
        0
280
     0
281
     1
  0
CLASS
  1
AM_ADLINCTRLINE
  2
AcAdLineCl
  3
DesignerServices
 90
        0
280
     0
281
     0
  0
CLASS
  1
AM_ADCIRCTRLINE
  2
AcAdBullsEyeCl
  3
DesignerServices
 90
        0
280
     0
281
     0
  0
CLASS
  1
AM_ORTHO_VIEW_ORIENT
  2
AcDmOrthoViewOr
  3
AcMechDwgViewMgmt
 90
        0
280
     0
281
     0
  0
CLASS
  1
AM_ORTHO_VIEW
  2
AcDmOrthoView
  3
AcMechDwgViewMgmt
 90
        0
280
     0
281
     0
  0
CLASS
  1
AM_VIEWDIMLINEAR
  2
AcDmViewDimLinear
  3
AcMechDwgViewMgmt
 90
        0
280
     0
281
     0
  0
CLASS
  1
ACADPARTPOINTRES
  2
AcAdPartPointRes
  3
AdGrefServices
 90
        0
280
     0
281
     0
  0
CLASS
  1
AM_VIEWDIMDIAMETER
  2
AcDmViewDimDiameter
  3
AcMechDwgViewMgmt
 90
        0
280
     0
281
     0
  0
CLASS
  1
ACDMVIEWGEOM
  2
AcDmViewGeometry
  3
AcMechDwgViewMgmt
 90
        0
280
     0
281
     1
  0
CLASS
  1
ACADPARTSPLINEEDGERES
  2
AcAdPartSplineEdgeRes
  3
AdGrefServices
 90
    32768
280
     0
281
     0
  0
CLASS
  1
ACADPARTSPLINEFACERES
  2
AcAdPartSplineFaceRes
  3
AdGrefServices
 90
    32768
280
     0
281
     0
  0
CLASS
  1
AMDTFORMULAUPDATEDISPATCHER
  2
AmdtFormulaUpdateDispatcher
  3
AcMeServices
 90
        0
280
     0
281
     0
  0
CLASS
  1
AM_ABS_PLANE
  2
AcDmAbsPlnDef
  3
AcMechDwgViewMgmt
 90
        0
280
     0
281
     0
  0
CLASS
  1
ACDMGREFEDIT
  2
AcDmViewEntityGeomrefEdit
  3
AcMechDwgViewMgmt
 90
    32768
280
     0
281
     0
  0
CLASS
  1
ACDMVIEWLINEDGERES
  2
AcDmViewLinEdgeRes
  3
AcMechDwgViewMgmt
 90
    32768
280
     0
281
     0
  0
CLASS
  1
ACDBLINERES
  2
AcDbLineRes
  3
AcGrefServices
 90
        0
280
     0
281
     0
  0
CLASS
  1
ACRFDMINSADJ
  2
AcRfDMInsAdjuster
  3
AcMechDwgViewMgmt
 90
        0
280
     0
281
     0
  0
CLASS
  1
AM_VIEWDIMRADIUS
  2
AcDmViewDimRadius
  3
AcMechDwgViewMgmt
 90
    32768
280
     0
281
     0
  0
CLASS
  1
AD_LINETAPH
  2
AcAdTapHoleLineDisp
  3
DesignerServices
 90
        0
280
     0
281
     0
  0
ENDSEC
  0
SECTION
  2
TABLES
  0
TABLE
  2
VPORT
  5
8
330
0
100
AcDbSymbolTable
 70
     3
  0
VPORT
  5
5DF4
330
8
100
AcDbSymbolTableRecord
100
AcDbViewportTableRecord
  2
*Active
 70
     0
 10
0.0
 20
0.0
 11
1.0
 21
1.0
 12
37.62750436370258
 22
0.8478276696908864
 13
0.0
 23
0.0
 14
10.0
 24
10.0
 15
10.0
 25
10.0
 16
0.0
 26
0.0
 36
1.0
 17
399.9457082776782
 27
221.2694627430417
 37
0.0
 40
162.4464479588703
 41
1.246894409937888
 42
50.0
 43
0.0
 44
0.0
 50
0.0
 51
0.0
 71
     0
 72
   100
 73
     1
 74
     3
 75
     0
 76
     0
 77
     0
 78
     0
281
     4
 65
     0
110
0.0
120
0.0
130
0.0
111
1.0
121
0.0
131
0.0
112
0.0
122
1.0
132
0.0
 79
     0
146
0.0
  0
ENDTAB
  0
TABLE
  2
LTYPE
  5
5
330
0
100
AcDbSymbolTable
 70
    16
  0
LTYPE
  5
14
330
5
100
AcDbSymbolTableRecord
100
AcDbLinetypeTableRecord
  2
ByBlock
 70
     0
  3

 72
    65
 73
     0
 40
0.0
  0
LTYPE
  5
15
330
5
100
AcDbSymbolTableRecord
100
AcDbLinetypeTableRecord
  2
ByLayer
 70
     0
  3

 72
    65
 73
     0
 40
0.0
  0
LTYPE
  5
16
330
5
100
AcDbSymbolTableRecord
100
AcDbLinetypeTableRecord
  2
Continuous
 70
     0
  3
Solid line
 72
    65
 73
     0
 40
0.0
  0
LTYPE
  5
4D
330
5
100
AcDbSymbolTableRecord
100
AcDbLinetypeTableRecord
  2
HIDDEN
 70
     0
  3
Hidden __ __ __ __ __ __ __ __ __ __ __ __ __ _
 72
    65
 73
     2
 40
9.524999999999998
 49
6.349999999999999
 74
     0
 49
-3.174999999999999
 74
     0
  0
LTYPE
  5
4E
330
5
100
AcDbSymbolTableRecord
100
AcDbLinetypeTableRecord
  2
PHANTOM2
 70
     0
  3
Phantom (.5x) ___ _ _ ___ _ _ ___ _ _ ___ _ _
 72
    65
 73
     6
 40
31.75
 49
15.875
 74
     0
 49
-3.174999999999999
 74
     0
 49
3.174999999999999
 74
     0
 49
-3.174999999999999
 74
     0
 49
3.174999999999999
 74
     0
 49
-3.174999999999999
 74
     0
  0
LTYPE
  5
4F
330
5
100
AcDbSymbolTableRecord
100
AcDbLinetypeTableRecord
  2
CENTER
 70
     0
  3
Center ____ _ ____ _ ____ _ ____ _ ____ _ ____
 72
    65
 73
     4
 40
50.8
 49
31.75
 74
     0
 49
-6.349999999999999
 74
     0
 49
6.349999999999999
 74
     0
 49
-6.349999999999999
 74
     0
  0
LTYPE
  5
F9
330
5
100
AcDbSymbolTableRecord
100
AcDbLinetypeTableRecord
  2
AM_ISO02W050
 70
     0
  3
__ __ __ __ __ __ __ __ __ __ __ __ __ __ __
 72
    65
 73
     2
 40
7.5
 49
6.0
 74
     0
 49
-1.5
 74
     0
  0
LTYPE
  5
FA
330
5
100
AcDbSymbolTableRecord
100
AcDbLinetypeTableRecord
  2
AM_ISO08W050
 70
     0
  3
____ . ____ . ____ . ____ . ____ . ____ . ____
 72
    65
 73
     4
 40
18.0
 49
12.0
 74
     0
 49
-1.5
 74
     0
 49
3.0
 74
     0
 49
-1.5
 74
     0
  0
LTYPE
  5
FB
330
5
100
AcDbSymbolTableRecord
100
AcDbLinetypeTableRecord
  2
AM_ISO09W050
 70
     0
  3
_____ . . _____ . . _____ . . ____ .. ____
 72
    65
 73
     6
 40
22.5
 49
12.0
 74
     0
 49
-1.5
 74
     0
 49
3.0
 74
     0
 49
-1.5
 74
     0
 49
3.0
 74
     0
 49
-1.5
 74
     0
  0
LTYPE
  5
FC
330
5
100
AcDbSymbolTableRecord
100
AcDbLinetypeTableRecord
  2
Amconstr
 70
     0
  3
_______________________
 72
    65
 73
     2
 40
9999.0
 49
9999.0
 74
     0
 49
0.0
 74
     0
  0
LTYPE
  5
FD
330
5
100
AcDbSymbolTableRecord
100
AcDbLinetypeTableRecord
  2
AM_ISO08W050x2
 70
     0
  3
__ . __ . __ . __ . __ . __
 72
    65
 73
     4
 40
9.0
 49
6.0
 74
     0
 49
-0.75
 74
     0
 49
1.5
 74
     0
 49
-0.75
 74
     0
  0
LTYPE
  5
FE
330
5
100
AcDbSymbolTableRecord
100
AcDbLinetypeTableRecord
  2
AM_ISO02W050x2
 70
     0
  3
 _ _ _ _ _ _ _ _ _ _ _ _
 72
    65
 73
     2
 40
3.75
 49
3.0
 74
     0
 49
-0.75
 74
     0
  0
LTYPE
  5
101
330
5
100
AcDbSymbolTableRecord
100
AcDbLinetypeTableRecord
  2
Amzigzag
 70
     0
  3
/\/-/\/-/\/-/\/-/\/-/\/
 72
    65
 73
     2
 40
11.00009999999999
 49
0.0001
 74
     4
 75
   135
340
100
 46
0.04
 50
0.0
 44
0.0
 45
0.0
 49
-11.0
 74
     0
  0
LTYPE
  5
14A
330
5
100
AcDbSymbolTableRecord
100
AcDbLinetypeTableRecord
  2
ACISOWELD
 70
     0
  3
_ _ _ _ _
 72
    65
 73
     2
 40
2.0
 49
2.0
 74
     0
 49
-1.0
 74
     0
  0
LTYPE
  5
14B
330
5
100
AcDbSymbolTableRecord
100
AcDbLinetypeTableRecord
  2
ACISOTGB
 70
     0
  3
__ . . __ . .
 72
    65
 73
     6
 40
9.0
 49
4.0
 74
     0
 49
-1.0
 74
     0
 49
1.0
 74
     0
 49
-1.0
 74
     0
 49
1.0
 74
     0
 49
-1.0
 74
     0
  0
LTYPE
  5
14C
330
5
100
AcDbSymbolTableRecord
100
AcDbLinetypeTableRecord
  2
ACISOTGL
 70
     0
  3
_ _ _ _ _
 72
    65
 73
     2
 40
3.0
 49
2.0
 74
     0
 49
-1.0
 74
     0
  0
LTYPE
  5
4A42
330
5
100
AcDbSymbolTableRecord
100
AcDbLinetypeTableRecord
  2
ASULTYPE
 70
     0
  3
Solid line
 72
    65
 73
     2
 40
3.0
 49
2.5
 74
     0
 49
0.5
 74
     0
  0
LTYPE
  5
4A43
330
5
100
AcDbSymbolTableRecord
100
AcDbLinetypeTableRecord
  2
ASVLTYPE
 70
     0
  3
__ __ __ __ __ __ __ __ __ __ __ __ __ __ __ __ __ __ __ __ __
 72
    65
 73
     2
 40
0.75
 49
0.5
 74
     0
 49
-0.25
 74
     0
  0
ENDTAB
  0
TABLE
  2
LAYER
  5
2
330
0
100
AcDbSymbolTable
 70
    13
  0
LAYER
  5
10
330
2
100
AcDbSymbolTableRecord
100
AcDbLayerTableRecord
  2
0
 70
     0
 62
     7
  6
Continuous
370
    -3
390
F
  0
LAYER
  5
10A
330
2
100
AcDbSymbolTableRecord
100
AcDbLayerTableRecord
  2
Unt
 70
     0
 62
     3
  6
Continuous
370
    -3
390
F
  0
LAYER
  5
342
330
2
100
AcDbSymbolTableRecord
100
AcDbLayerTableRecord
  2
Defpoints
 70
     0
 62
    -7
  6
Continuous
290
     0
370
    -3
390
F
  0
LAYER
  5
343
330
2
100
AcDbSymbolTableRecord
100
AcDbLayerTableRecord
  2
AM_5
 70
     0
 62
     3
  6
Continuous
370
    25
390
F
  0
LAYER
  5
3F8
330
2
100
AcDbSymbolTableRecord
100
AcDbLayerTableRecord
  2
AM_WORK
 70
     0
 62
     7
  6
Continuous
370
    -3
390
F
  0
LAYER
  5
46A
330
2
100
AcDbSymbolTableRecord
100
AcDbLayerTableRecord
  2
UNTITLED
 70
     0
 62
     3
  6
Continuous
370
    -3
390
F
  0
LAYER
  5
4D19
330
2
100
AcDbSymbolTableRecord
100
AcDbLayerTableRecord
  2
AM_VIEWS
 70
     0
 62
    -1
  6
Continuous
290
     0
370
    25
390
F
  0
LAYER
  5
4D1E
330
2
100
AcDbSymbolTableRecord
100
AcDbLayerTableRecord
  2
AM_VIS
 70
     2
 62
     7
  6
Continuous
370
    50
390
F
  0
LAYER
  5
4D1F
330
2
100
AcDbSymbolTableRecord
100
AcDbLayerTableRecord
  2
AM_HID
 70
     2
 62
     7
  6
AM_ISO02W050
370
    25
390
F
  0
LAYER
  5
4E04
330
2
100
AcDbSymbolTableRecord
100
AcDbLayerTableRecord
  2
AM_7
 70
     0
 62
     4
  6
AM_ISO08W050
370
    25
390
F
  0
LAYER
  5
4EA1
330
2
100
AcDbSymbolTableRecord
100
AcDbLayerTableRecord
  2
AM_FR
 70
     5
 62
     7
  6
Continuous
370
    -3
390
F
  0
LAYER
  5
56A1
330
2
100
AcDbSymbolTableRecord
100
AcDbLayerTableRecord
  2
AM_REFDIM
 70
     0
 62
     4
  6
Continuous
370
    25
390
F
  0
LAYER
  5
5B3C
330
2
100
AcDbSymbolTableRecord
100
AcDbLayerTableRecord
  2
AM_4
 70
     0
 62
     3
  6
Continuous
370
    25
390
F
  0
ENDTAB
  0
TABLE
  2
STYLE
  5
3
330
0
100
AcDbSymbolTable
 70
     4
  0
STYLE
  5
11
330
3
100
AcDbSymbolTableRecord
100
AcDbTextStyleTableRecord
  2
Standard
 70
     0
 40
0.0
 41
1.0
 50
0.0
 71
     0
 42
2.5
  3
txt
  4

  0
STYLE
  5
100
330
3
100
AcDbSymbolTableRecord
100
AcDbTextStyleTableRecord
  2

 70
     1
 40
0.0
 41
1.0
 50
0.0
 71
     0
 42
2.5
  3
ltypeshp.shx
  4

  0
STYLE
  5
13D
330
3
100
AcDbSymbolTableRecord
100
AcDbTextStyleTableRecord
  2
ACISOTS
 70
     0
 40
1.0
 41
1.0
 50
0.0
 71
     0
 42
2.5
  3
isocp.shx
  4

  0
STYLE
  5
149
330
3
100
AcDbSymbolTableRecord
100
AcDbTextStyleTableRecord
  2
ACISOGDT
 70
     0
 40
0.0
 41
1.0
 50
0.0
 71
     0
 42
2.5
  3
amgdt.shx
  4

  0
ENDTAB
  0
TABLE
  2
VIEW
  5
6
330
0
100
AcDbSymbolTable
 70
     0
  0
ENDTAB
  0
TABLE
  2
UCS
  5
7
330
0
100
AcDbSymbolTable
 70
     0
  0
ENDTAB
  0
TABLE
  2
APPID
  5
9
330
0
100
AcDbSymbolTable
 70
    17
  0
APPID
  5
12
330
9
100
AcDbSymbolTableRecord
100
AcDbRegAppTableRecord
  2
ACAD
 70
     0
  0
APPID
  5
2C
330
9
100
AcDbSymbolTableRecord
100
AcDbRegAppTableRecord
  2
MCAD_NO_VIS
 70
     0
  0
APPID
  5
2D
330
9
100
AcDbSymbolTableRecord
100
AcDbRegAppTableRecord
  2
ACAD_TEMP_GRAPHIC
 70
     0
  0
APPID
  5
62
330
9
100
AcDbSymbolTableRecord
100
AcDbRegAppTableRecord
  2
AD_DRAW
 70
     0
  0
APPID
  5
65
330
9
100
AcDbSymbolTableRecord
100
AcDbRegAppTableRecord
  2
ACATTRIBSERVICES
 70
     0
  0
APPID
  5
6D
330
9
100
AcDbSymbolTableRecord
100
AcDbRegAppTableRecord
  2
GENIUS_GENDIM_13
 70
     0
  0
APPID
  5
6E
330
9
100
AcDbSymbolTableRecord
100
AcDbRegAppTableRecord
  2
GENIUS_GENDTOL_13
 70
     0
  0
APPID
  5
6F
330
9
100
AcDbSymbolTableRecord
100
AcDbRegAppTableRecord
  2
GENIUS_GE3DTOL_13
 70
     0
  0
APPID
  5
B7
330
9
100
AcDbSymbolTableRecord
100
AcDbRegAppTableRecord
  2
ASURF_PCURVE_APPNAME
 70
     0
  0
APPID
  5
E9
330
9
100
AcDbSymbolTableRecord
100
AcDbRegAppTableRecord
  2
DESIGNERASSEMBLIES
 70
     0
  0
APPID
  5
F1
330
9
100
AcDbSymbolTableRecord
100
AcDbRegAppTableRecord
  2
ACADM_DIM_EDIT
 70
     0
  0
APPID
  5
2B6
330
9
100
AcDbSymbolTableRecord
100
AcDbRegAppTableRecord
  2
AMDT_DM_ADJ
 70
     0
  0
APPID
  5
34C
330
9
100
AcDbSymbolTableRecord
100
AcDbRegAppTableRecord
  2
AD_SKETCHDIM
 70
     0
  0
APPID
  5
34D
330
9
100
AcDbSymbolTableRecord
100
AcDbRegAppTableRecord
  2
GENIUS_GENDIMSH_14
 70
     0
  0
APPID
  5
493
330
9
100
AcDbSymbolTableRecord
100
AcDbRegAppTableRecord
  2
AM_EDITFEAT
 70
     0
  0
APPID
  5
60A
330
9
100
AcDbSymbolTableRecord
100
AcDbRegAppTableRecord
  2
ACDM_DIMTEXT
 70
     0
  0
APPID
  5
369E
330
9
100
AcDbSymbolTableRecord
100
AcDbRegAppTableRecord
  2
GENIUS_GE3MANIP_13
 70
     0
  0
ENDTAB
  0
TABLE
  2
DIMSTYLE
  5
A
330
0
100
AcDbSymbolTable
 70
    10
100
AcDbDimStyleTable
 71
     4
340
10E
340
15A
340
155
340
150
  0
DIMSTYLE
105
10E
102
{ACAD_REACTORS
330
56A2
330
56CE
330
56F1
330
5720
330
574D
330
5785
330
57BC
330
57EF
330
5820
330
584A
330
5880
330
58B5
330
5900
330
592B
330
5A5F
330
5B57
330
5B76
102
}
330
A
100
AcDbSymbolTableRecord
100
AcDbDimStyleTableRecord
  2
Standard
 70
     0
 41
2.5
 42
1.5
 43
3.75
 44
1.25
 73
     0
 77
     1
 78
     1
140
2.5
141
2.5
143
0.03937007874016
147
1.0
171
     3
172
     1
271
     1
272
     1
274
     3
283
     0
284
     1
340
11
  0
DIMSTYLE
105
150
330
A
100
AcDbSymbolTableRecord
100
AcDbDimStyleTableRecord
  2
AM_ISO
 70
     0
  4
"
 41
2.5
 42
1.0
 43
10.0
 44
1.0
 47
0.1
 48
0.1
 73
     0
 74
     0
 77
     1
 78
     8
 79
     2
140
3.5
141
0.0
143
0.0393701
146
0.71
147
1.5
172
     1
176
   256
177
   256
178
     2
271
     2
272
     3
274
     4
283
     0
284
     8
340
11
371
    -1
372
    -1
  0
DIMSTYLE
105
151
330
A
100
AcDbSymbolTableRecord
100
AcDbDimStyleTableRecord
  2
AM_ISO$3
 70
     0
  4
"
 41
2.5
 42
1.0
 43
10.0
 44
1.0
 47
0.1
 48
0.1
 73
     0
 77
     1
 78
     8
 79
     2
140
3.5
141
0.0
143
0.0393701
146
0.71
147
1.5
176
   256
177
   256
178
     2
271
     2
272
     3
274
     4
283
     0
284
     8
288
     1
289
     0
340
11
371
    -1
372
    -1
  0
DIMSTYLE
105
152
330
A
100
AcDbSymbolTableRecord
100
AcDbDimStyleTableRecord
  2
AM_ISO$4
 70
     0
  4
"
 41
2.5
 42
1.0
 43
10.0
 44
1.0
 47
0.1
 48
0.1
 73
     0
 77
     1
 78
     8
 79
     2
140
3.5
141
0.0
143
0.0393701
146
0.71
147
1.5
176
   256
177
   256
178
     2
271
     2
272
     3
274
     4
283
     0
284
     8
288
     1
289
     0
340
11
371
    -1
372
    -1
  0
DIMSTYLE
105
153
330
A
100
AcDbSymbolTableRecord
100
AcDbDimStyleTableRecord
  2
AM_ISO$6
 70
     0
  4
"
 41
2.5
 42
1.0
 43
10.0
 44
1.0
 47
0.1
 48
0.1
 73
     0
 74
     0
 78
     8
 79
     2
140
3.5
141
0.0
143
0.0393701
146
0.71
147
1.5
172
     1
176
   256
177
   256
178
     2
271
     2
272
     3
274
     4
283
     0
284
     8
340
11
371
    -1
372
    -1
  0
DIMSTYLE
105
154
330
A
100
AcDbSymbolTableRecord
100
AcDbDimStyleTableRecord
  2
AM_ISO$7
 70
     0
  4
"
 41
2.5
 42
1.0
 43
10.0
 44
1.0
 47
0.1
 48
0.1
 73
     0
 74
     0
 77
     1
 78
     8
 79
     2
140
5.0
141
0.0
143
0.0393701
146
0.71
147
1.5
172
     1
176
   256
177
   256
178
     2
271
     2
272
     3
274
     4
283
     0
284
     8
340
11
371
    -1
372
    -1
  0
DIMSTYLE
105
155
330
A
100
AcDbSymbolTableRecord
100
AcDbDimStyleTableRecord
  2
AM_ISO$SF
 70
     0
  4
"
 41
2.5
 42
1.0
 43
10.0
 44
1.0
 47
0.1
 48
0.1
 73
     0
 74
     0
 75
     1
 76
     1
 77
     1
 78
     8
 79
     2
140
3.5
141
0.0
143
0.0393701
146
0.71
147
1.5
172
     1
176
   256
177
   256
178
     2
271
     2
272
     3
274
     4
283
     0
284
     8
340
11
371
    -1
372
    -1
  0
DIMSTYLE
105
15A
330
A
100
AcDbSymbolTableRecord
100
AcDbDimStyleTableRecord
  2
AM_ISO$SH
 70
     0
  4
"
 41
2.5
 42
1.0
 43
10.0
 44
1.0
 47
0.1
 48
0.1
 73
     0
 74
     0
 75
     1
 76
     1
 77
     1
 78
     8
 79
     2
140
3.5
141
0.0
143
0.0393701
144
2.0
146
0.71
147
1.5
172
     1
173
     1
176
   256
177
   256
178
     2
271
     2
272
     3
274
     4
283
     0
284
     8
340
11
343
156
371
    -1
372
    -1
  0
DIMSTYLE
105
2759
330
A
100
AcDbSymbolTableRecord
100
AcDbDimStyleTableRecord
  2
STD
 70
     0
 41
2.5
 42
1.5
 43
3.75
 44
1.25
 73
     0
 77
     1
 78
     1
140
2.5
141
2.5
143
0.03937007874016
147
1.0
171
     3
172
     1
271
     1
272
     1
274
     3
283
     0
284
     8
340
11
  0
DIMSTYLE
105
2930
330
A
100
AcDbSymbolTableRecord
100
AcDbDimStyleTableRecord
  2
DIMSTYLE1
 70
     0
 41
2.5
 42
2.0
 43
3.75
 44
1.25
 73
     0
 77
     1
140
2.5
141
0.0
143
0.0394
147
1.0
171
     4
271
     1
272
     1
273
     8
274
     4
289
     0
340
11
  0
ENDTAB
  0
TABLE
  2
BLOCK_RECORD
  5
1
330
0
100
AcDbSymbolTable
 70
    79
  0
BLOCK_RECORD
  5
1F
102
{ACAD_XDICTIONARY
360
10F
102
}
330
1
100
AcDbSymbolTableRecord
100
AcDbBlockTableRecord
  2
*Model_Space
340
22
  0
BLOCK_RECORD
  5
1B
330
1
100
AcDbSymbolTableRecord
100
AcDbBlockTableRecord
  2
*Paper_Space
340
1E
  0
BLOCK_RECORD
  5
E0
330
1
100
AcDbSymbolTableRecord
100
AcDbBlockTableRecord
  2
*U0
340
0
  0
BLOCK_RECORD
  5
156
330
1
100
AcDbSymbolTableRecord
100
AcDbBlockTableRecord
  2
GENAXEH
340
0
  0
BLOCK_RECORD
  5
77D
330
1
100
AcDbSymbolTableRecord
100
AcDbBlockTableRecord
  2
*U2
340
0
102
{BLKREFS
331
357
331
35A
331
5C3F
331
5C56
331
5DDE
331
5DE3
102
}
  0
BLOCK_RECORD
  5
61A
330
1
100
AcDbSymbolTableRecord
100
AcDbBlockTableRecord
  2
*U3
340
0
102
{BLKREFS
331
77E
331
4C9E
331
5C4E
331
5DC3
102
}
  0
BLOCK_RECORD
  5
1027
330
1
100
AcDbSymbolTableRecord
100
AcDbBlockTableRecord
  2
*U4
340
0
102
{BLKREFS
331
375
331
378
331
5C40
331
5C57
331
5DDF
331
5DE4
102
}
  0
BLOCK_RECORD
  5
EC4
330
1
100
AcDbSymbolTableRecord
100
AcDbBlockTableRecord
  2
*U5
340
0
102
{BLKREFS
331
1028
331
4CA6
331
5C4F
331
5DC4
102
}
  0
BLOCK_RECORD
  5
1893
330
1
100
AcDbSymbolTableRecord
100
AcDbBlockTableRecord
  2
*U6
340
0
102
{BLKREFS
331
393
331
396
331
5C45
331
5C58
331
5DE0
331
5DE5
102
}
  0
BLOCK_RECORD
  5
176F
330
1
100
AcDbSymbolTableRecord
100
AcDbBlockTableRecord
  2
*U7
340
0
102
{BLKREFS
331
1894
331
4CAE
331
5C50
331
5DC5
102
}
  0
BLOCK_RECORD
  5
1CF5
330
1
100
AcDbSymbolTableRecord
100
AcDbBlockTableRecord
  2
*U8
340
0
102
{BLKREFS
331
3B1
331
3B4
331
5C46
331
5C59
331
5DE1
331
5DE6
102
}
  0
BLOCK_RECORD
  5
1BD1
330
1
100
AcDbSymbolTableRecord
100
AcDbBlockTableRecord
  2
*U9
340
0
102
{BLKREFS
331
1CF6
331
4CB6
331
5C51
331
5DC6
102
}
  0
BLOCK_RECORD
  5
1F19
330
1
100
AcDbSymbolTableRecord
100
AcDbBlockTableRecord
  2
*U10
340
0
102
{BLKREFS
331
3CD
331
3D0
331
5C47
331
5C5A
331
5DE2
331
5DE7
102
}
  0
BLOCK_RECORD
  5
1E5F
330
1
100
AcDbSymbolTableRecord
100
AcDbBlockTableRecord
  2
*U11
340
0
102
{BLKREFS
331
1F1A
331
4CBE
331
5C52
331
5DC7
102
}
  0
BLOCK_RECORD
  5
21AB
330
1
100
AcDbSymbolTableRecord
100
AcDbBlockTableRecord
  2
*U12
340
0
102
{BLKREFS
331
3EB
331
3EE
331
5C48
331
5C5B
331
5DD4
331
5DE8
102
}
  0
BLOCK_RECORD
  5
208A
330
1
100
AcDbSymbolTableRecord
100
AcDbBlockTableRecord
  2
*U13
340
0
102
{BLKREFS
331
21AC
331
4CC6
331
5C38
331
5DC8
102
}
  0
BLOCK_RECORD
  5
2442
330
1
100
AcDbSymbolTableRecord
100
AcDbBlockTableRecord
  2
*U14
340
0
102
{BLKREFS
331
40A
331
40D
331
5C49
331
5C5C
331
5DD3
331
5DE9
102
}
  0
BLOCK_RECORD
  5
231E
330
1
100
AcDbSymbolTableRecord
100
AcDbBlockTableRecord
  2
*U15
340
0
102
{BLKREFS
331
2443
331
2444
331
4CCE
331
4CD0
331
5C37
331
5C53
331
5DC9
331
5DCA
102
}
  0
BLOCK_RECORD
  5
2A81
330
1
100
AcDbSymbolTableRecord
100
AcDbBlockTableRecord
  2
*U16
340
0
102
{BLKREFS
331
440
331
443
331
5C4A
331
5C5D
331
5DD2
331
5DEA
102
}
  0
BLOCK_RECORD
  5
29BA
330
1
100
AcDbSymbolTableRecord
100
AcDbBlockTableRecord
  2
*U17
340
0
102
{BLKREFS
331
2A82
331
4CD8
331
5C36
331
5DCB
102
}
  0
BLOCK_RECORD
  5
27A5
330
1
100
AcDbSymbolTableRecord
100
AcDbBlockTableRecord
  2
*U18
340
0
102
{BLKREFS
331
458
331
45B
331
5C4B
331
5C5E
331
5DD5
331
5DEB
102
}
  0
BLOCK_RECORD
  5
2757
330
1
100
AcDbSymbolTableRecord
100
AcDbBlockTableRecord
  2
*U19
340
0
102
{BLKREFS
331
27A6
331
4CE0
331
5C39
331
5DCC
102
}
  0
BLOCK_RECORD
  5
295B
330
1
100
AcDbSymbolTableRecord
100
AcDbBlockTableRecord
  2
*U20
340
0
102
{BLKREFS
331
477
331
47A
331
5C4C
331
5C5F
331
5DD6
331
5DEC
102
}
  0
BLOCK_RECORD
  5
292E
330
1
100
AcDbSymbolTableRecord
100
AcDbBlockTableRecord
  2
*U21
340
0
102
{BLKREFS
331
295C
331
4CE8
331
5C3A
331
5DCD
102
}
  0
BLOCK_RECORD
  5
2FD0
330
1
100
AcDbSymbolTableRecord
100
AcDbBlockTableRecord
  2
*U22
340
0
102
{BLKREFS
331
49D
331
4A0
331
4A4
331
4A7
331
5C41
331
5C4D
331
5C60
331
5C61
331
5DD7
331
5DD8
331
5DED
331
5DEE
102
}
  0
BLOCK_RECORD
  5
2F19
330
1
100
AcDbSymbolTableRecord
100
AcDbBlockTableRecord
  2
*U23
340
0
102
{BLKREFS
331
2FD1
331
4CF0
331
5C3B
331
5DCE
102
}
  0
BLOCK_RECORD
  5
322F
330
1
100
AcDbSymbolTableRecord
100
AcDbBlockTableRecord
  2
*U24
340
0
102
{BLKREFS
331
4C9
331
4CC
331
4D0
331
4D3
331
5C42
331
5C43
331
5C62
331
5C63
331
5DD9
331
5DDA
331
5DEF
331
5DF0
102
}
  0
BLOCK_RECORD
  5
3144
330
1
100
AcDbSymbolTableRecord
100
AcDbBlockTableRecord
  2
*U25
340
0
102
{BLKREFS
331
3230
331
4CFA
331
5C3C
331
5DCF
102
}
  0
BLOCK_RECORD
  5
2DBA
330
1
100
AcDbSymbolTableRecord
100
AcDbBlockTableRecord
  2
*U26
340
0
102
{BLKREFS
331
4EE
331
4F1
331
4F5
331
4F8
331
5C44
331
5C54
331
5C64
331
5C65
331
5DDB
331
5DDC
331
5DF1
331
5DF2
102
}
  0
BLOCK_RECORD
  5
2D66
330
1
100
AcDbSymbolTableRecord
100
AcDbBlockTableRecord
  2
*U27
340
0
102
{BLKREFS
331
2DBB
331
4D04
331
5C3D
331
5DD0
102
}
  0
BLOCK_RECORD
  5
2C18
330
1
100
AcDbSymbolTableRecord
100
AcDbBlockTableRecord
  2
*U28
340
0
102
{BLKREFS
331
614
331
617
331
5C55
331
5C66
331
5DDD
331
5DF3
102
}
  0
BLOCK_RECORD
  5
2BB6
330
1
100
AcDbSymbolTableRecord
100
AcDbBlockTableRecord
  2
*U29
340
0
102
{BLKREFS
331
2C19
331
4D0E
331
5C3E
331
5DD1
102
}
  0
BLOCK_RECORD
  5
3F46
330
1
100
AcDbSymbolTableRecord
100
AcDbBlockTableRecord
  2
*U30
340
0
  0
BLOCK_RECORD
  5
3F4E
330
1
100
AcDbSymbolTableRecord
100
AcDbBlockTableRecord
  2
*U31
340
0
  0
BLOCK_RECORD
  5
3F56
330
1
100
AcDbSymbolTableRecord
100
AcDbBlockTableRecord
  2
*U32
340
0
  0
BLOCK_RECORD
  5
3F5E
330
1
100
AcDbSymbolTableRecord
100
AcDbBlockTableRecord
  2
*U33
340
0
  0
BLOCK_RECORD
  5
3F66
330
1
100
AcDbSymbolTableRecord
100
AcDbBlockTableRecord
  2
*U34
340
0
  0
BLOCK_RECORD
  5
3F6E
330
1
100
AcDbSymbolTableRecord
100
AcDbBlockTableRecord
  2
*U35
340
0
  0
BLOCK_RECORD
  5
3F76
330
1
100
AcDbSymbolTableRecord
100
AcDbBlockTableRecord
  2
*U36
340
0
  0
BLOCK_RECORD
  5
3F82
330
1
100
AcDbSymbolTableRecord
100
AcDbBlockTableRecord
  2
*U37
340
0
  0
BLOCK_RECORD
  5
3F8A
330
1
100
AcDbSymbolTableRecord
100
AcDbBlockTableRecord
  2
*U38
340
0
  0
BLOCK_RECORD
  5
3F92
330
1
100
AcDbSymbolTableRecord
100
AcDbBlockTableRecord
  2
*U39
340
0
  0
BLOCK_RECORD
  5
3F9A
330
1
100
AcDbSymbolTableRecord
100
AcDbBlockTableRecord
  2
*U40
340
0
  0
BLOCK_RECORD
  5
3FA4
330
1
100
AcDbSymbolTableRecord
100
AcDbBlockTableRecord
  2
*U41
340
0
  0
BLOCK_RECORD
  5
3FAE
330
1
100
AcDbSymbolTableRecord
100
AcDbBlockTableRecord
  2
*U42
340
0
  0
BLOCK_RECORD
  5
3FB8
330
1
100
AcDbSymbolTableRecord
100
AcDbBlockTableRecord
  2
*U43
340
0
  0
BLOCK_RECORD
  5
4C86
330
1
100
AcDbSymbolTableRecord
100
AcDbBlockTableRecord
  2
*U44
340
0
102
{BLKREFS
331
4C91
102
}
  0
BLOCK_RECORD
  5
4C8A
330
1
100
AcDbSymbolTableRecord
100
AcDbBlockTableRecord
  2
*U45
340
0
102
{BLKREFS
331
4C92
102
}
  0
BLOCK_RECORD
  5
4C97
330
1
100
AcDbSymbolTableRecord
100
AcDbBlockTableRecord
  2
*U46
340
0
102
{BLKREFS
331
4C9C
102
}
  0
BLOCK_RECORD
  5
4C9F
330
1
100
AcDbSymbolTableRecord
100
AcDbBlockTableRecord
  2
*U47
340
0
102
{BLKREFS
331
4CA4
102
}
  0
BLOCK_RECORD
  5
4CA7
330
1
100
AcDbSymbolTableRecord
100
AcDbBlockTableRecord
  2
*U48
340
0
102
{BLKREFS
331
4CAC
102
}
  0
BLOCK_RECORD
  5
4CAF
330
1
100
AcDbSymbolTableRecord
100
AcDbBlockTableRecord
  2
*U49
340
0
102
{BLKREFS
331
4CB4
102
}
  0
BLOCK_RECORD
  5
4CB7
330
1
100
AcDbSymbolTableRecord
100
AcDbBlockTableRecord
  2
*U50
340
0
102
{BLKREFS
331
4CBC
102
}
  0
BLOCK_RECORD
  5
4CBF
330
1
100
AcDbSymbolTableRecord
100
AcDbBlockTableRecord
  2
*U51
340
0
102
{BLKREFS
331
4CC4
102
}
  0
BLOCK_RECORD
  5
4CC7
330
1
100
AcDbSymbolTableRecord
100
AcDbBlockTableRecord
  2
*U52
340
0
102
{BLKREFS
331
4CCC
102
}
  0
BLOCK_RECORD
  5
4CD1
330
1
100
AcDbSymbolTableRecord
100
AcDbBlockTableRecord
  2
*U53
340
0
102
{BLKREFS
331
4CD6
102
}
  0
BLOCK_RECORD
  5
4CD9
330
1
100
AcDbSymbolTableRecord
100
AcDbBlockTableRecord
  2
*U54
340
0
102
{BLKREFS
331
4CDE
102
}
  0
BLOCK_RECORD
  5
4CE1
330
1
100
AcDbSymbolTableRecord
100
AcDbBlockTableRecord
  2
*U55
340
0
102
{BLKREFS
331
4CE6
102
}
  0
BLOCK_RECORD
  5
4CE9
330
1
100
AcDbSymbolTableRecord
100
AcDbBlockTableRecord
  2
*U56
340
0
102
{BLKREFS
331
4CEE
331
4CF2
102
}
  0
BLOCK_RECORD
  5
4CF3
330
1
100
AcDbSymbolTableRecord
100
AcDbBlockTableRecord
  2
*U57
340
0
102
{BLKREFS
331
4CF8
331
4CFC
102
}
  0
BLOCK_RECORD
  5
4CFD
330
1
100
AcDbSymbolTableRecord
100
AcDbBlockTableRecord
  2
*U58
340
0
102
{BLKREFS
331
4D02
331
4D06
102
}
  0
BLOCK_RECORD
  5
4D07
330
1
100
AcDbSymbolTableRecord
100
AcDbBlockTableRecord
  2
*U59
340
0
102
{BLKREFS
331
4D0C
102
}
  0
BLOCK_RECORD
  5
56A3
330
1
100
AcDbSymbolTableRecord
100
AcDbBlockTableRecord
  2
*D60
340
0
  0
BLOCK_RECORD
  5
56CF
330
1
100
AcDbSymbolTableRecord
100
AcDbBlockTableRecord
  2
*D61
340
0
  0
BLOCK_RECORD
  5
56F2
330
1
100
AcDbSymbolTableRecord
100
AcDbBlockTableRecord
  2
*D62
340
0
  0
BLOCK_RECORD
  5
5721
330
1
100
AcDbSymbolTableRecord
100
AcDbBlockTableRecord
  2
*D63
340
0
  0
BLOCK_RECORD
  5
574E
330
1
100
AcDbSymbolTableRecord
100
AcDbBlockTableRecord
  2
*D64
340
0
  0
BLOCK_RECORD
  5
5786
330
1
100
AcDbSymbolTableRecord
100
AcDbBlockTableRecord
  2
*D65
340
0
  0
BLOCK_RECORD
  5
57BD
330
1
100
AcDbSymbolTableRecord
100
AcDbBlockTableRecord
  2
*D66
340
0
  0
BLOCK_RECORD
  5
57F0
330
1
100
AcDbSymbolTableRecord
100
AcDbBlockTableRecord
  2
*D67
340
0
  0
BLOCK_RECORD
  5
5821
330
1
100
AcDbSymbolTableRecord
100
AcDbBlockTableRecord
  2
*D68
340
0
  0
BLOCK_RECORD
  5
584B
330
1
100
AcDbSymbolTableRecord
100
AcDbBlockTableRecord
  2
*D69
340
0
  0
BLOCK_RECORD
  5
5881
330
1
100
AcDbSymbolTableRecord
100
AcDbBlockTableRecord
  2
*D70
340
0
  0
BLOCK_RECORD
  5
58B6
330
1
100
AcDbSymbolTableRecord
100
AcDbBlockTableRecord
  2
*D71
340
0
  0
BLOCK_RECORD
  5
5901
330
1
100
AcDbSymbolTableRecord
100
AcDbBlockTableRecord
  2
*D74
340
0
  0
BLOCK_RECORD
  5
592C
330
1
100
AcDbSymbolTableRecord
100
AcDbBlockTableRecord
  2
*D75
340
0
  0
BLOCK_RECORD
  5
5A60
330
1
100
AcDbSymbolTableRecord
100
AcDbBlockTableRecord
  2
*D76
340
0
  0
BLOCK_RECORD
  5
5B58
330
1
100
AcDbSymbolTableRecord
100
AcDbBlockTableRecord
  2
*D77
340
0
  0
BLOCK_RECORD
  5
5B77
330
1
100
AcDbSymbolTableRecord
100
AcDbBlockTableRecord
  2
*D78
340
0
  0
ENDTAB
  0
ENDSEC
  0
SECTION
  2
BLOCKS
  0
BLOCK
  5
20
330
1F
100
AcDbEntity
  8
0
100
AcDbBlockBegin
  2
*Model_Space
 70
     0
 10
0.0
 20
0.0
 30
0.0
  3
*Model_Space
  1

  0
ENDBLK
  5
21
330
1F
100
AcDbEntity
  8
0
100
AcDbBlockEnd
  0
BLOCK
  5
1C
330
1B
100
AcDbEntity
 67
     1
  8
0
100
AcDbBlockBegin
  2
*Paper_Space
 70
     0
 10
0.0
 20
0.0
 30
0.0
  3
*Paper_Space
  1

  0
ENDBLK
  5
1D
330
1B
100
AcDbEntity
 67
     1
  8
0
100
AcDbBlockEnd
  0
BLOCK
  5
E1
330
E0
100
AcDbEntity
  8
0
100
AcDbBlockBegin
  2
*U0
 70
     1
 10
0.0
 20
0.0
 30
0.0
  3
*U0
  1

  0
INSERT
  5
5DD2
330
E0
100
AcDbEntity
  8
0
100
AcDbBlockReference
  2
*U16
 10
119.4356875625482
 20
84.51219065778593
 30
-14.76988568804848
  0
INSERT
  5
5DD3
330
E0
100
AcDbEntity
  8
0
100
AcDbBlockReference
  2
*U14
 10
64.29507751472129
 20
64.39014253684082
 30
-32.24850367320519
 50
353.4449598305146
  0
INSERT
  5
5DD4
330
E0
100
AcDbEntity
  8
0
100
AcDbBlockReference
  2
*U12
 10
-543.2211056609436
 20
582.4024061949917
 30
1.748503673212357
 50
270.0
210
0.0000000000000185
220
-0.0000000000000001
230
-1.0
  0
INSERT
  5
5DD5
330
E0
100
AcDbEntity
  8
0
100
AcDbBlockReference
  2
*U18
 10
356.3936462791706
 20
-269.6306923539034
 30
388.6245824435992
 50
89.99999999999998
210
1.0
220
0.0
230
0.0
  0
INSERT
  5
5DD6
330
E0
100
AcDbEntity
  8
0
100
AcDbBlockReference
  2
*U20
 10
172.4676193763012
 20
28.19688750932911
 30
-14.74850367320511
  0
INSERT
  5
5DD7
330
E0
100
AcDbEntity
  8
0
100
AcDbBlockReference
  2
*U22
 10
519.158450879435
 20
98.74675398026424
 30
-27.24850367320462
 41
0.9999999999999957
 42
0.9999999999999992
 43
0.9999999999999928
 50
83.44495983051437
  0
INSERT
  5
5DD8
330
E0
100
AcDbEntity
  8
0
100
AcDbBlockReference
  2
*U22
 10
519.1584508794344
 20
98.74675398026417
 30
3.751496326795477
 41
0.999999999999996
 42
0.9999999999999992
 43
0.9999999999999932
 50
83.44495983051434
  0
INSERT
  5
5DD9
330
E0
100
AcDbEntity
  8
0
100
AcDbBlockReference
  2
*U24
 10
514.9544574482275
 20
75.77184154485525
 30
3.73358804820654
 50
83.44495983051459
  0
INSERT
  5
5DDA
330
E0
100
AcDbEntity
  8
0
100
AcDbBlockReference
  2
*U24
 10
514.9544574482275
 20
75.77184154485525
 30
-27.26641195179345
 50
83.44495983051459
  0
INSERT
  5
5DDB
330
E0
100
AcDbEntity
  8
0
100
AcDbBlockReference
  2
*U26
 10
208.4969538157194
 20
121.1295556322651
 30
-19.09850367320519
 50
353.4449598305146
  0
INSERT
  5
5DDC
330
E0
100
AcDbEntity
  8
0
100
AcDbBlockReference
  2
*U26
 10
208.4969538157194
 20
121.1295556322651
 30
-5.398503673205187
 50
353.4449598305146
  0
INSERT
  5
5DDD
330
E0
100
AcDbEntity
  8
0
100
AcDbBlockReference
  2
*U28
 10
65.87551292748372
 20
49.00502514823947
 30
-18.24850367320518
  0
INSERT
  5
5DDE
330
E0
100
AcDbEntity
  8
0
100
AcDbBlockReference
  2
*U2
 10
199.4479004203878
 20
14.89448078513873
 30
-8.748503673205181
  0
INSERT
  5
5DDF
330
E0
100
AcDbEntity
  8
0
100
AcDbBlockReference
  2
*U4
 10
199.4479004203878
 20
14.89448078513871
 30
-14.74850367320518
  0
INSERT
  5
5DE0
330
E0
100
AcDbEntity
  8
0
100
AcDbBlockReference
  2
*U6
 10
118.9225036421813
 20
83.90060187702733
 30
-8.791267702891762
 41
1.0
 42
1.0
  0
INSERT
  5
5DE1
330
E0
100
AcDbEntity
  8
0
100
AcDbBlockReference
  2
*U8
 10
118.9225036421817
 20
83.90060187702706
 30
-14.74850367320512
  0
INSERT
  5
5DE2
330
E0
100
AcDbEntity
  8
0
100
AcDbBlockReference
  2
*U10
 10
80.11161762407287
 20
194.7916439738814
 30
-361.0587231308401
 41
1.000000000000001
 42
1.000000000000001
 43
1.0
 50
180.0
210
-0.9934626506024073
220
0.1141576184844408
230
-0.0000000000000019
  0
ENDBLK
  5
E2
330
E0
100
AcDbEntity
  8
0
100
AcDbBlockEnd
  0
BLOCK
  5
158
330
156
100
AcDbEntity
  8
0
100
AcDbBlockBegin
  2
GENAXEH
 70
     0
 10
0.0
 20
0.0
 30
0.0
  3
GENAXEH
  1

  0
LINE
  5
157
330
156
100
AcDbEntity
  8
0
100
AcDbLine
 10
-1.0
 20
0.0
 30
0.0
 11
1.0
 21
0.0
 31
0.0
  0
ENDBLK
  5
159
330
156
100
AcDbEntity
  8
0
100
AcDbBlockEnd
  0
BLOCK
  5
77F
330
77D
100
AcDbEntity
  8
0
100
AcDbBlockBegin
  2
*U2
 70
     1
 10
0.0
 20
0.0
 30
0.0
  3
*U2
  1

  0
INSERT
  5
5DC3
330
77D
100
AcDbEntity
  8
Unt
100
AcDbBlockReference
  2
*U3
 10
205.5516820232114
 20
217.1244183659069
 30
1.5
  0
ENDBLK
  5
780
330
77D
100
AcDbEntity
  8
0
100
AcDbBlockEnd
  0
BLOCK
  5
77B
330
61A
100
AcDbEntity
  8
0
100
AcDbBlockBegin
  2
*U3
 70
     1
 10
0.0
 20
0.0
 30
0.0
  3
*U3
  1

  0
ENDBLK
  5
77C
330
61A
100
AcDbEntity
  8
0
100
AcDbBlockEnd
  0
BLOCK
  5
1029
330
1027
100
AcDbEntity
  8
0
100
AcDbBlockBegin
  2
*U4
 70
     1
 10
0.0
 20
0.0
 30
0.0
  3
*U4
  1

  0
INSERT
  5
5DC4
330
1027
100
AcDbEntity
  8
Unt
100
AcDbBlockReference
  2
*U5
 10
205.5516820232114
 20
217.1244183659069
 30
1.5
  0
ENDBLK
  5
102A
330
1027
100
AcDbEntity
  8
0
100
AcDbBlockEnd
  0
BLOCK
  5
1025
330
EC4
100
AcDbEntity
  8
0
100
AcDbBlockBegin
  2
*U5
 70
     1
 10
0.0
 20
0.0
 30
0.0
  3
*U5
  1

  0
ENDBLK
  5
1026
330
EC4
100
AcDbEntity
  8
0
100
AcDbBlockEnd
  0
BLOCK
  5
1895
330
1893
100
AcDbEntity
  8
0
100
AcDbBlockBegin
  2
*U6
 70
     1
 10
0.0
 20
0.0
 30
0.0
  3
*U6
  1

  0
INSERT
  5
5DC5
330
1893
100
AcDbEntity
  8
Unt
100
AcDbBlockReference
  2
*U7
 10
309.7042304364176
 20
171.3024186621407
 30
1.5
  0
ENDBLK
  5
1896
330
1893
100
AcDbEntity
  8
0
100
AcDbBlockEnd
  0
BLOCK
  5
1891
330
176F
100
AcDbEntity
  8
0
100
AcDbBlockBegin
  2
*U7
 70
     1
 10
0.0
 20
0.0
 30
0.0
  3
*U7
  1

  0
ENDBLK
  5
1892
330
176F
100
AcDbEntity
  8
0
100
AcDbBlockEnd
  0
BLOCK
  5
1CF7
330
1CF5
100
AcDbEntity
  8
0
100
AcDbBlockBegin
  2
*U8
 70
     1
 10
0.0
 20
0.0
 30
0.0
  3
*U8
  1

  0
INSERT
  5
5DC6
330
1CF5
100
AcDbEntity
  8
Unt
100
AcDbBlockReference
  2
*U9
 10
309.7042304364176
 20
171.3024186621407
 30
1.5
  0
ENDBLK
  5
1CF8
330
1CF5
100
AcDbEntity
  8
0
100
AcDbBlockEnd
  0
BLOCK
  5
1CF3
330
1BD1
100
AcDbEntity
  8
0
100
AcDbBlockBegin
  2
*U9
 70
     1
 10
0.0
 20
0.0
 30
0.0
  3
*U9
  1

  0
ENDBLK
  5
1CF4
330
1BD1
100
AcDbEntity
  8
0
100
AcDbBlockEnd
  0
BLOCK
  5
1F1B
330
1F19
100
AcDbEntity
  8
0
100
AcDbBlockBegin
  2
*U10
 70
     1
 10
0.0
 20
0.0
 30
0.0
  3
*U10
  1

  0
INSERT
  5
5DC7
330
1F19
100
AcDbEntity
  8
Unt
100
AcDbBlockReference
  2
*U11
 10
354.197263074842
 20
206.5401476470869
 30
3.0
  0
ENDBLK
  5
1F1C
330
1F19
100
AcDbEntity
  8
0
100
AcDbBlockEnd
  0
BLOCK
  5
1F0F
330
1E5F
100
AcDbEntity
  8
0
100
AcDbBlockBegin
  2
*U11
 70
     1
 10
0.0
 20
0.0
 30
0.0
  3
*U11
  1

  0
ENDBLK
  5
1F10
330
1E5F
100
AcDbEntity
  8
0
100
AcDbBlockEnd
  0
BLOCK
  5
21AD
330
21AB
100
AcDbEntity
  8
0
100
AcDbBlockBegin
  2
*U12
 70
     1
 10
0.0
 20
0.0
 30
0.0
  3
*U12
  1

  0
INSERT
  5
5DC8
330
21AB
100
AcDbEntity
  8
Unt
100
AcDbBlockReference
  2
*U13
 10
389.7089372908236
 20
171.0338629842475
 30
10.5
  0
ENDBLK
  5
21AE
330
21AB
100
AcDbEntity
  8
0
100
AcDbBlockEnd
  0
BLOCK
  5
21A9
330
208A
100
AcDbEntity
  8
0
100
AcDbBlockBegin
  2
*U13
 70
     1
 10
0.0
 20
0.0
 30
0.0
  3
*U13
  1

  0
ENDBLK
  5
21AA
330
208A
100
AcDbEntity
  8
0
100
AcDbBlockEnd
  0
BLOCK
  5
2445
330
2442
100
AcDbEntity
  8
0
100
AcDbBlockBegin
  2
*U14
 70
     1
 10
0.0
 20
0.0
 30
0.0
  3
*U14
  1

  0
INSERT
  5
5DC9
330
2442
100
AcDbEntity
  8
Unt
100
AcDbBlockReference
  2
*U15
 10
301.5345903282574
 20
232.2766708440992
 30
20.5
  0
INSERT
  5
5DCA
330
2442
100
AcDbEntity
  8
Unt
100
AcDbBlockReference
  2
*U15
 10
-301.5345903282574
 20
232.2766708440992
 30
-20.5
210
0.0
220
0.0
230
-1.0
  0
ENDBLK
  5
2446
330
2442
100
AcDbEntity
  8
0
100
AcDbBlockEnd
  0
BLOCK
  5
2437
330
231E
100
AcDbEntity
  8
0
100
AcDbBlockBegin
  2
*U15
 70
     1
 10
0.0
 20
0.0
 30
0.0
  3
*U15
  1

  0
ENDBLK
  5
2438
330
231E
100
AcDbEntity
  8
0
100
AcDbBlockEnd
  0
BLOCK
  5
2A83
330
2A81
100
AcDbEntity
  8
0
100
AcDbBlockBegin
  2
*U16
 70
     1
 10
0.0
 20
0.0
 30
0.0
  3
*U16
  1

  0
INSERT
  5
5DCB
330
2A81
100
AcDbEntity
  8
Unt
100
AcDbBlockReference
  2
*U17
 10
309.7042304364176
 20
171.3024186621407
 30
1.5
  0
ENDBLK
  5
2A84
330
2A81
100
AcDbEntity
  8
0
100
AcDbBlockEnd
  0
BLOCK
  5
2A7C
330
29BA
100
AcDbEntity
  8
0
100
AcDbBlockBegin
  2
*U17
 70
     1
 10
0.0
 20
0.0
 30
0.0
  3
*U17
  1

  0
ENDBLK
  5
2A7D
330
29BA
100
AcDbEntity
  8
0
100
AcDbBlockEnd
  0
BLOCK
  5
27A7
330
27A5
100
AcDbEntity
  8
0
100
AcDbBlockBegin
  2
*U18
 70
     1
 10
0.0
 20
0.0
 30
0.0
  3
*U18
  1

  0
INSERT
  5
5DCC
330
27A5
100
AcDbEntity
  8
0
100
AcDbBlockReference
  2
*U19
 10
244.7071886806982
 20
115.6677773750028
 30
0.0
  0
ENDBLK
  5
27A8
330
27A5
100
AcDbEntity
  8
0
100
AcDbBlockEnd
  0
BLOCK
  5
27A3
330
2757
100
AcDbEntity
  8
0
100
AcDbBlockBegin
  2
*U19
 70
     1
 10
0.0
 20
0.0
 30
0.0
  3
*U19
  1

  0
ENDBLK
  5
27A4
330
2757
100
AcDbEntity
  8
0
100
AcDbBlockEnd
  0
BLOCK
  5
295D
330
295B
100
AcDbEntity
  8
0
100
AcDbBlockBegin
  2
*U20
 70
     1
 10
0.0
 20
0.0
 30
0.0
  3
*U20
  1

  0
INSERT
  5
5DCD
330
295B
100
AcDbEntity
  8
UNTITLED
100
AcDbBlockReference
  2
*U21
 10
0.0
 20
0.0
 30
0.0
  0
ENDBLK
  5
295E
330
295B
100
AcDbEntity
  8
0
100
AcDbBlockEnd
  0
BLOCK
  5
2959
330
292E
100
AcDbEntity
  8
0
100
AcDbBlockBegin
  2
*U21
 70
     1
 10
0.0
 20
0.0
 30
0.0
  3
*U21
  1

  0
ENDBLK
  5
295A
330
292E
100
AcDbEntity
  8
0
100
AcDbBlockEnd
  0
BLOCK
  5
2FD2
330
2FD0
100
AcDbEntity
  8
0
100
AcDbBlockBegin
  2
*U22
 70
     1
 10
0.0
 20
0.0
 30
0.0
  3
*U22
  1

  0
INSERT
  5
5DCE
330
2FD0
100
AcDbEntity
  8
0
100
AcDbBlockReference
  2
*U23
 10
0.0
 20
0.0
 30
0.0
  0
ENDBLK
  5
2FD3
330
2FD0
100
AcDbEntity
  8
0
100
AcDbBlockEnd
  0
BLOCK
  5
2FCA
330
2F19
100
AcDbEntity
  8
0
100
AcDbBlockBegin
  2
*U23
 70
     1
 10
0.0
 20
0.0
 30
0.0
  3
*U23
  1

  0
ENDBLK
  5
2FCB
330
2F19
100
AcDbEntity
  8
0
100
AcDbBlockEnd
  0
BLOCK
  5
3231
330
322F
100
AcDbEntity
  8
0
100
AcDbBlockBegin
  2
*U24
 70
     1
 10
0.0
 20
0.0
 30
0.0
  3
*U24
  1

  0
INSERT
  5
5DCF
330
322F
100
AcDbEntity
  8
0
100
AcDbBlockReference
  2
*U25
 10
0.0
 20
0.0
 30
0.0
  0
ENDBLK
  5
3232
330
322F
100
AcDbEntity
  8
0
100
AcDbBlockEnd
  0
BLOCK
  5
3229
330
3144
100
AcDbEntity
  8
0
100
AcDbBlockBegin
  2
*U25
 70
     1
 10
0.0
 20
0.0
 30
0.0
  3
*U25
  1

  0
ENDBLK
  5
322A
330
3144
100
AcDbEntity
  8
0
100
AcDbBlockEnd
  0
BLOCK
  5
2DBC
330
2DBA
100
AcDbEntity
  8
0
100
AcDbBlockBegin
  2
*U26
 70
     1
 10
0.0
 20
0.0
 30
0.0
  3
*U26
  1

  0
INSERT
  5
5DD0
330
2DBA
100
AcDbEntity
  8
0
100
AcDbBlockReference
  2
*U27
 10
164.7526483496058
 20
159.4464403371844
 30
0.5
  0
ENDBLK
  5
2DBD
330
2DBA
100
AcDbEntity
  8
0
100
AcDbBlockEnd
  0
BLOCK
  5
2DB8
330
2D66
100
AcDbEntity
  8
0
100
AcDbBlockBegin
  2
*U27
 70
     1
 10
0.0
 20
0.0
 30
0.0
  3
*U27
  1

  0
ENDBLK
  5
2DB9
330
2D66
100
AcDbEntity
  8
0
100
AcDbBlockEnd
  0
BLOCK
  5
2C1A
330
2C18
100
AcDbEntity
  8
0
100
AcDbBlockBegin
  2
*U28
 70
     1
 10
0.0
 20
0.0
 30
0.0
  3
*U28
  1

  0
INSERT
  5
5DD1
330
2C18
100
AcDbEntity
  8
Unt
100
AcDbBlockReference
  2
*U29
 10
342.7490695161156
 20
189.9708437559284
 30
6.0
  0
ENDBLK
  5
2C1B
330
2C18
100
AcDbEntity
  8
0
100
AcDbBlockEnd
  0
BLOCK
  5
2C16
330
2BB6
100
AcDbEntity
  8
0
100
AcDbBlockBegin
  2
*U29
 70
     1
 10
0.0
 20
0.0
 30
0.0
  3
*U29
  1

  0
ENDBLK
  5
2C17
330
2BB6
100
AcDbEntity
  8
0
100
AcDbBlockEnd
  0
BLOCK
  5
3F47
330
3F46
100
AcDbEntity
  8
0
100
AcDbBlockBegin
  2
*U30
 70
     1
 10
0.0
 20
0.0
 30
0.0
  3
*U30
  1

  0
ENDBLK
  5
3F48
330
3F46
100
AcDbEntity
  8
0
100
AcDbBlockEnd
  0
BLOCK
  5
3F4F
330
3F4E
100
AcDbEntity
  8
0
100
AcDbBlockBegin
  2
*U31
 70
     1
 10
0.0
 20
0.0
 30
0.0
  3
*U31
  1

  0
ENDBLK
  5
3F50
330
3F4E
100
AcDbEntity
  8
0
100
AcDbBlockEnd
  0
BLOCK
  5
3F57
330
3F56
100
AcDbEntity
  8
0
100
AcDbBlockBegin
  2
*U32
 70
     1
 10
0.0
 20
0.0
 30
0.0
  3
*U32
  1

  0
ENDBLK
  5
3F58
330
3F56
100
AcDbEntity
  8
0
100
AcDbBlockEnd
  0
BLOCK
  5
3F5F
330
3F5E
100
AcDbEntity
  8
0
100
AcDbBlockBegin
  2
*U33
 70
     1
 10
0.0
 20
0.0
 30
0.0
  3
*U33
  1

  0
ENDBLK
  5
3F60
330
3F5E
100
AcDbEntity
  8
0
100
AcDbBlockEnd
  0
BLOCK
  5
3F67
330
3F66
100
AcDbEntity
  8
0
100
AcDbBlockBegin
  2
*U34
 70
     1
 10
0.0
 20
0.0
 30
0.0
  3
*U34
  1

  0
ENDBLK
  5
3F68
330
3F66
100
AcDbEntity
  8
0
100
AcDbBlockEnd
  0
BLOCK
  5
3F6F
330
3F6E
100
AcDbEntity
  8
0
100
AcDbBlockBegin
  2
*U35
 70
     1
 10
0.0
 20
0.0
 30
0.0
  3
*U35
  1

  0
ENDBLK
  5
3F70
330
3F6E
100
AcDbEntity
  8
0
100
AcDbBlockEnd
  0
BLOCK
  5
3F77
330
3F76
100
AcDbEntity
  8
0
100
AcDbBlockBegin
  2
*U36
 70
     1
 10
0.0
 20
0.0
 30
0.0
  3
*U36
  1

  0
ENDBLK
  5
3F78
330
3F76
100
AcDbEntity
  8
0
100
AcDbBlockEnd
  0
BLOCK
  5
3F83
330
3F82
100
AcDbEntity
  8
0
100
AcDbBlockBegin
  2
*U37
 70
     1
 10
0.0
 20
0.0
 30
0.0
  3
*U37
  1

  0
ENDBLK
  5
3F84
330
3F82
100
AcDbEntity
  8
0
100
AcDbBlockEnd
  0
BLOCK
  5
3F8B
330
3F8A
100
AcDbEntity
  8
0
100
AcDbBlockBegin
  2
*U38
 70
     1
 10
0.0
 20
0.0
 30
0.0
  3
*U38
  1

  0
ENDBLK
  5
3F8C
330
3F8A
100
AcDbEntity
  8
0
100
AcDbBlockEnd
  0
BLOCK
  5
3F93
330
3F92
100
AcDbEntity
  8
0
100
AcDbBlockBegin
  2
*U39
 70
     1
 10
0.0
 20
0.0
 30
0.0
  3
*U39
  1

  0
ENDBLK
  5
3F94
330
3F92
100
AcDbEntity
  8
0
100
AcDbBlockEnd
  0
BLOCK
  5
3F9B
330
3F9A
100
AcDbEntity
  8
0
100
AcDbBlockBegin
  2
*U40
 70
     1
 10
0.0
 20
0.0
 30
0.0
  3
*U40
  1

  0
ENDBLK
  5
3F9C
330
3F9A
100
AcDbEntity
  8
0
100
AcDbBlockEnd
  0
BLOCK
  5
3FA5
330
3FA4
100
AcDbEntity
  8
0
100
AcDbBlockBegin
  2
*U41
 70
     1
 10
0.0
 20
0.0
 30
0.0
  3
*U41
  1

  0
ENDBLK
  5
3FA6
330
3FA4
100
AcDbEntity
  8
0
100
AcDbBlockEnd
  0
BLOCK
  5
3FAF
330
3FAE
100
AcDbEntity
  8
0
100
AcDbBlockBegin
  2
*U42
 70
     1
 10
0.0
 20
0.0
 30
0.0
  3
*U42
  1

  0
ENDBLK
  5
3FB0
330
3FAE
100
AcDbEntity
  8
0
100
AcDbBlockEnd
  0
BLOCK
  5
3FB9
330
3FB8
100
AcDbEntity
  8
0
100
AcDbBlockBegin
  2
*U43
 70
     1
 10
0.0
 20
0.0
 30
0.0
  3
*U43
  1

  0
ENDBLK
  5
3FBA
330
3FB8
100
AcDbEntity
  8
0
100
AcDbBlockEnd
  0
BLOCK
  5
4C87
330
4C86
100
AcDbEntity
  8
0
100
AcDbBlockBegin
  2
*U44
 70
     1
 10
0.0
 20
0.0
 30
0.0
  3
*U44
  1

  0
ENDBLK
  5
4C88
330
4C86
100
AcDbEntity
  8
0
100
AcDbBlockEnd
  0
BLOCK
  5
4C8B
330
4C8A
100
AcDbEntity
  8
0
100
AcDbBlockBegin
  2
*U45
 70
     1
 10
0.0
 20
0.0
 30
0.0
  3
*U45
  1

  0
ENDBLK
  5
4C8C
330
4C8A
100
AcDbEntity
  8
0
100
AcDbBlockEnd
  0
BLOCK
  5
4C98
330
4C97
100
AcDbEntity
  8
0
100
AcDbBlockBegin
  2
*U46
 70
     1
 10
0.0
 20
0.0
 30
0.0
  3
*U46
  1

  0
ENDBLK
  5
4C99
330
4C97
100
AcDbEntity
  8
0
100
AcDbBlockEnd
  0
BLOCK
  5
4CA0
330
4C9F
100
AcDbEntity
  8
0
100
AcDbBlockBegin
  2
*U47
 70
     1
 10
0.0
 20
0.0
 30
0.0
  3
*U47
  1

  0
ENDBLK
  5
4CA1
330
4C9F
100
AcDbEntity
  8
0
100
AcDbBlockEnd
  0
BLOCK
  5
4CA8
330
4CA7
100
AcDbEntity
  8
0
100
AcDbBlockBegin
  2
*U48
 70
     1
 10
0.0
 20
0.0
 30
0.0
  3
*U48
  1

  0
ENDBLK
  5
4CA9
330
4CA7
100
AcDbEntity
  8
0
100
AcDbBlockEnd
  0
BLOCK
  5
4CB0
330
4CAF
100
AcDbEntity
  8
0
100
AcDbBlockBegin
  2
*U49
 70
     1
 10
0.0
 20
0.0
 30
0.0
  3
*U49
  1

  0
ENDBLK
  5
4CB1
330
4CAF
100
AcDbEntity
  8
0
100
AcDbBlockEnd
  0
BLOCK
  5
4CB8
330
4CB7
100
AcDbEntity
  8
0
100
AcDbBlockBegin
  2
*U50
 70
     1
 10
0.0
 20
0.0
 30
0.0
  3
*U50
  1

  0
ENDBLK
  5
4CB9
330
4CB7
100
AcDbEntity
  8
0
100
AcDbBlockEnd
  0
BLOCK
  5
4CC0
330
4CBF
100
AcDbEntity
  8
0
100
AcDbBlockBegin
  2
*U51
 70
     1
 10
0.0
 20
0.0
 30
0.0
  3
*U51
  1

  0
ENDBLK
  5
4CC1
330
4CBF
100
AcDbEntity
  8
0
100
AcDbBlockEnd
  0
BLOCK
  5
4CC8
330
4CC7
100
AcDbEntity
  8
0
100
AcDbBlockBegin
  2
*U52
 70
     1
 10
0.0
 20
0.0
 30
0.0
  3
*U52
  1

  0
ENDBLK
  5
4CC9
330
4CC7
100
AcDbEntity
  8
0
100
AcDbBlockEnd
  0
BLOCK
  5
4CD2
330
4CD1
100
AcDbEntity
  8
0
100
AcDbBlockBegin
  2
*U53
 70
     1
 10
0.0
 20
0.0
 30
0.0
  3
*U53
  1

  0
ENDBLK
  5
4CD3
330
4CD1
100
AcDbEntity
  8
0
100
AcDbBlockEnd
  0
BLOCK
  5
4CDA
330
4CD9
100
AcDbEntity
  8
0
100
AcDbBlockBegin
  2
*U54
 70
     1
 10
0.0
 20
0.0
 30
0.0
  3
*U54
  1

  0
ENDBLK
  5
4CDB
330
4CD9
100
AcDbEntity
  8
0
100
AcDbBlockEnd
  0
BLOCK
  5
4CE2
330
4CE1
100
AcDbEntity
  8
0
100
AcDbBlockBegin
  2
*U55
 70
     1
 10
0.0
 20
0.0
 30
0.0
  3
*U55
  1

  0
ENDBLK
  5
4CE3
330
4CE1
100
AcDbEntity
  8
0
100
AcDbBlockEnd
  0
BLOCK
  5
4CEA
330
4CE9
100
AcDbEntity
  8
0
100
AcDbBlockBegin
  2
*U56
 70
     1
 10
0.0
 20
0.0
 30
0.0
  3
*U56
  1

  0
ENDBLK
  5
4CEB
330
4CE9
100
AcDbEntity
  8
0
100
AcDbBlockEnd
  0
BLOCK
  5
4CF4
330
4CF3
100
AcDbEntity
  8
0
100
AcDbBlockBegin
  2
*U57
 70
     1
 10
0.0
 20
0.0
 30
0.0
  3
*U57
  1

  0
ENDBLK
  5
4CF5
330
4CF3
100
AcDbEntity
  8
0
100
AcDbBlockEnd
  0
BLOCK
  5
4CFE
330
4CFD
100
AcDbEntity
  8
0
100
AcDbBlockBegin
  2
*U58
 70
     1
 10
0.0
 20
0.0
 30
0.0
  3
*U58
  1

  0
ENDBLK
  5
4CFF
330
4CFD
100
AcDbEntity
  8
0
100
AcDbBlockEnd
  0
BLOCK
  5
4D08
330
4D07
100
AcDbEntity
  8
0
100
AcDbBlockBegin
  2
*U59
 70
     1
 10
0.0
 20
0.0
 30
0.0
  3
*U59
  1

  0
ENDBLK
  5
4D09
330
4D07
100
AcDbEntity
  8
0
100
AcDbBlockEnd
  0
BLOCK
  5
56AF
330
56A3
100
AcDbEntity
  8
0
100
AcDbBlockBegin
  2
*D60
 70
     1
 10
0.0
 20
0.0
 30
0.0
  3
*D60
  1

  0
LINE
  5
56C1
330
56A3
100
AcDbEntity
  8
AM_REFDIM
 62
     0
370
    -2
100
AcDbLine
 10
97.35628141375897
 20
174.7852958836533
 30
0.0
 11
97.35628141375897
 21
181.6254495606531
 31
0.0
  0
LINE
  5
56C2
330
56A3
100
AcDbEntity
  8
AM_REFDIM
 62
     0
370
    -2
100
AcDbLine
 10
103.3562814137589
 20
174.7852958836533
 30
0.0
 11
103.3562814137589
 21
181.6254495606531
 31
0.0
  0
LINE
  5
56C3
330
56A3
100
AcDbEntity
  8
AM_REFDIM
 62
     0
370
    -2
100
AcDbLine
 10
94.85628141375897
 20
180.3754495606531
 30
0.0
 11
92.35628141375897
 21
180.3754495606531
 31
0.0
  0
LINE
  5
56C4
330
56A3
100
AcDbEntity
  8
AM_REFDIM
 62
     0
370
    -2
100
AcDbLine
 10
105.8562814137589
 20
180.3754495606531
 30
0.0
 11
114.9396147470923
 21
180.3754495606531
 31
0.0
  0
LINE
  5
56C5
330
56A3
100
AcDbEntity
  8
AM_REFDIM
 62
     0
370
    -2
100
AcDbLine
 10
97.35628141375897
 20
180.3754495606531
 30
0.0
 11
103.3562814137589
 21
180.3754495606531
 31
0.0
  0
SOLID
  5
56C6
330
56A3
100
AcDbEntity
  8
AM_REFDIM
 62
     0
100
AcDbTrace
 10
94.85628141375897
 20
180.7921162273197
 30
0.0
 11
94.85628141375897
 21
179.9587828939864
 31
0.0
 12
97.35628141375897
 22
180.3754495606531
 32
0.0
 13
97.35628141375897
 23
180.3754495606531
 33
0.0
  0
SOLID
  5
56C7
330
56A3
100
AcDbEntity
  8
AM_REFDIM
 62
     0
100
AcDbTrace
 10
105.8562814137589
 20
180.7921162273197
 30
0.0
 11
105.8562814137589
 21
179.9587828939864
 31
0.0
 12
103.3562814137589
 22
180.3754495606531
 32
0.0
 13
103.3562814137589
 23
180.3754495606531
 33
0.0
  0
MTEXT
  5
56C8
330
56A3
100
AcDbEntity
  8
AM_REFDIM
 62
     0
100
AcDbMText
 10
111.6479480804256
 20
182.6254495606531
 30
0.0
 40
2.5
 41
0.0
 71
     5
 72
     1
  1
6.0
 73
     1
 44
1.0
  0
POINT
  5
56C9
330
56A3
100
AcDbEntity
  8
Defpoints
 62
     0
100
AcDbPoint
 10
97.35628141375897
 20
173.2852958836533
 30
0.0
  0
POINT
  5
56CA
330
56A3
100
AcDbEntity
  8
Defpoints
 62
     0
100
AcDbPoint
 10
103.3562814137589
 20
173.2852958836533
 30
0.0
  0
POINT
  5
56CB
330
56A3
100
AcDbEntity
  8
Defpoints
 62
     0
100
AcDbPoint
 10
103.3562814137589
 20
180.3754495606531
 30
0.0
  0
ENDBLK
  5
56B0
330
56A3
100
AcDbEntity
  8
0
100
AcDbBlockEnd
  0
BLOCK
  5
56D9
330
56CF
100
AcDbEntity
  8
0
100
AcDbBlockBegin
  2
*D61
 70
     1
 10
0.0
 20
0.0
 30
0.0
  3
*D61
  1

  0
LINE
  5
56DB
330
56CF
100
AcDbEntity
  8
AM_REFDIM
 62
     0
370
    -2
100
AcDbLine
 10
146.9702984668508
 20
42.50244702418513
 30
0.0
 11
138.4702984668508
 21
42.50244702418512
 31
0.0
  0
LINE
  5
56DC
330
56CF
100
AcDbEntity
  8
AM_REFDIM
 62
     0
370
    -2
100
AcDbLine
 10
138.4702984668508
 20
42.50244702418512
 30
0.0
 11
118.6216284411861
 21
71.27153956224532
 31
0.0
  0
LINE
  5
56DD
330
56CF
100
AcDbEntity
  8
AM_REFDIM
 62
     0
370
    -2
100
AcDbLine
 10
112.0909343863319
 20
80.73726907253099
 30
0.0
 11
110.6712182874506
 21
82.79503635737571
 31
0.0
  0
MTEXT
  5
56DE
330
56CF
100
AcDbEntity
  8
AM_REFDIM
 62
     0
100
AcDbMText
 10
143.2202984668508
 20
44.75244702418511
 30
0.0
 40
2.5
 41
0.0
 71
     5
 72
     1
  1
\U+22056.5
 73
     1
 44
1.0
  0
LINE
  5
56DF
330
56CF
100
AcDbEntity
  8
AM_REFDIM
 62
     0
370
    -2
100
AcDbLine
 10
113.5106504852133
 20
78.67950178768627
 30
0.0
 11
117.2019123423047
 21
73.32930684709002
 31
0.0
  0
SOLID
  5
56E0
330
56CF
100
AcDbEntity
  8
AM_REFDIM
 62
     0
100
AcDbTrace
 10
112.4338956004727
 20
80.97388842234455
 30
0.0
 11
111.7479731721912
 21
80.50064972271744
 31
0.0
 12
113.5106504852133
 22
78.67950178768627
 32
0.0
 13
113.5106504852133
 23
78.67950178768627
 33
0.0
  0
SOLID
  5
56E1
330
56CF
100
AcDbEntity
  8
AM_REFDIM
 62
     0
100
AcDbTrace
 10
118.9645896553268
 20
71.50815891205886
 30
0.0
 11
118.2786672270453
 21
71.03492021243176
 31
0.0
 12
117.2019123423047
 22
73.32930684709002
 32
0.0
 13
117.2019123423047
 23
73.32930684709002
 33
0.0
  0
POINT
  5
56E2
330
56CF
100
AcDbEntity
  8
Defpoints
 62
     0
100
AcDbPoint
 10
117.2019123423047
 20
73.32930684709002
 30
0.0
  0
POINT
  5
56E3
330
56CF
100
AcDbEntity
  8
Defpoints
 62
     0
100
AcDbPoint
 10
113.5106504852133
 20
78.67950178768627
 30
0.0
  0
ENDBLK
  5
56DA
330
56CF
100
AcDbEntity
  8
0
100
AcDbBlockEnd
  0
BLOCK
  5
56FC
330
56F2
100
AcDbEntity
  8
0
100
AcDbBlockBegin
  2
*D62
 70
     1
 10
0.0
 20
0.0
 30
0.0
  3
*D62
  1

  0
LINE
  5
5713
330
56F2
100
AcDbEntity
  8
AM_REFDIM
 62
     0
370
    -2
100
AcDbLine
 10
123.106281413759
 20
76.00440431738812
 30
0.0
 11
148.987183244099
 21
76.00440431738812
 31
0.0
  0
LINE
  5
5714
330
56F2
100
AcDbEntity
  8
AM_REFDIM
 62
     0
370
    -2
100
AcDbLine
 10
130.3562814137589
 20
90.00440431738812
 30
0.0
 11
148.987183244099
 21
90.00440431738812
 31
0.0
  0
LINE
  5
5715
330
56F2
100
AcDbEntity
  8
AM_REFDIM
 62
     0
370
    -2
100
AcDbLine
 10
147.737183244099
 20
78.50440431738812
 30
0.0
 11
147.737183244099
 21
87.50440431738812
 31
0.0
  0
SOLID
  5
5716
330
56F2
100
AcDbEntity
  8
AM_REFDIM
 62
     0
100
AcDbTrace
 10
147.3205165774323
 20
78.50440431738812
 30
0.0
 11
148.1538499107656
 21
78.50440431738812
 31
0.0
 12
147.737183244099
 22
76.00440431738812
 32
0.0
 13
147.737183244099
 23
76.00440431738812
 33
0.0
  0
SOLID
  5
5717
330
56F2
100
AcDbEntity
  8
AM_REFDIM
 62
     0
100
AcDbTrace
 10
147.3205165774323
 20
87.50440431738812
 30
0.0
 11
148.1538499107656
 21
87.50440431738812
 31
0.0
 12
147.737183244099
 22
90.00440431738812
 32
0.0
 13
147.737183244099
 23
90.00440431738812
 33
0.0
  0
MTEXT
  5
5718
330
56F2
100
AcDbEntity
  8
AM_REFDIM
 62
     0
100
AcDbMText
 10
145.4871832440989
 20
83.00440431738813
 30
0.0
 40
2.5
 41
0.0
 71
     5
 72
     1
  1
14
 11
0.0000000000000001
 21
1.0
 31
0.0
 73
     1
 44
1.0
  0
POINT
  5
5719
330
56F2
100
AcDbEntity
  8
Defpoints
 62
     0
100
AcDbPoint
 10
121.606281413759
 20
76.00440431738812
 30
0.0
  0
POINT
  5
571A
330
56F2
100
AcDbEntity
  8
Defpoints
 62
     0
100
AcDbPoint
 10
128.8562814137589
 20
90.00440431738812
 30
0.0
  0
POINT
  5
571B
330
56F2
100
AcDbEntity
  8
Defpoints
 62
     0
100
AcDbPoint
 10
147.737183244099
 20
90.00440431738812
 30
0.0
  0
ENDBLK
  5
56FD
330
56F2
100
AcDbEntity
  8
0
100
AcDbBlockEnd
  0
BLOCK
  5
572D
330
5721
100
AcDbEntity
  8
0
100
AcDbBlockBegin
  2
*D63
 70
     1
 10
0.0
 20
0.0
 30
0.0
  3
*D63
  1

  0
LINE
  5
573E
330
5721
100
AcDbEntity
  8
AM_REFDIM
 62
     0
370
    -2
100
AcDbLine
 10
127.3562814137589
 20
96.00440431738812
 30
0.0
 11
148.987183244099
 21
96.00440431738812
 31
0.0
  0
LINE
  5
573F
330
5721
100
AcDbEntity
  8
AM_REFDIM
 62
     0
370
    -2
100
AcDbLine
 10
130.3562814137589
 20
90.00440431738812
 30
0.0
 11
148.987183244099
 21
90.00440431738812
 31
0.0
  0
LINE
  5
5740
330
5721
100
AcDbEntity
  8
AM_REFDIM
 62
     0
370
    -2
100
AcDbLine
 10
147.737183244099
 20
98.50440431738812
 30
0.0
 11
147.737183244099
 21
101.0044043173881
 31
0.0
  0
LINE
  5
5741
330
5721
100
AcDbEntity
  8
AM_REFDIM
 62
     0
370
    -2
100
AcDbLine
 10
147.737183244099
 20
87.50440431738812
 30
0.0
 11
147.737183244099
 21
85.00440431738812
 31
0.0
  0
LINE
  5
5742
330
5721
100
AcDbEntity
  8
AM_REFDIM
 62
     0
370
    -2
100
AcDbLine
 10
147.737183244099
 20
96.00440431738812
 30
0.0
 11
147.737183244099
 21
90.00440431738812
 31
0.0
  0
SOLID
  5
5743
330
5721
100
AcDbEntity
  8
AM_REFDIM
 62
     0
100
AcDbTrace
 10
147.3205165774324
 20
98.50440431738812
 30
0.0
 11
148.1538499107657
 21
98.50440431738812
 31
0.0
 12
147.737183244099
 22
96.00440431738812
 32
0.0
 13
147.737183244099
 23
96.00440431738812
 33
0.0
  0
SOLID
  5
5744
330
5721
100
AcDbEntity
  8
AM_REFDIM
 62
     0
100
AcDbTrace
 10
147.3205165774324
 20
87.50440431738812
 30
0.0
 11
148.1538499107657
 21
87.50440431738812
 31
0.0
 12
147.737183244099
 22
90.00440431738812
 32
0.0
 13
147.737183244099
 23
90.00440431738812
 33
0.0
  0
MTEXT
  5
5745
330
5721
100
AcDbEntity
  8
AM_REFDIM
 62
     0
100
AcDbMText
 10
145.487183244099
 20
93.00440431738813
 30
0.0
 40
2.5
 41
0.0
 71
     5
 72
     1
  1
6
 11
0.0000000000000001
 21
1.0
 31
0.0
 73
     1
 44
1.0
  0
POINT
  5
5746
330
5721
100
AcDbEntity
  8
Defpoints
 62
     0
100
AcDbPoint
 10
125.8562814137589
 20
96.00440431738812
 30
0.0
  0
POINT
  5
5747
330
5721
100
AcDbEntity
  8
Defpoints
 62
     0
100
AcDbPoint
 10
128.8562814137589
 20
90.00440431738812
 30
0.0
  0
POINT
  5
5748
330
5721
100
AcDbEntity
  8
Defpoints
 62
     0
100
AcDbPoint
 10
147.737183244099
 20
90.00440431738812
 30
0.0
  0
ENDBLK
  5
572E
330
5721
100
AcDbEntity
  8
0
100
AcDbBlockEnd
  0
BLOCK
  5
575B
330
574E
100
AcDbEntity
  8
0
100
AcDbBlockBegin
  2
*D64
 70
     1
 10
0.0
 20
0.0
 30
0.0
  3
*D64
  1

  0
LINE
  5
576E
330
574E
100
AcDbEntity
  8
AM_REFDIM
 62
     0
370
    -2
100
AcDbLine
 10
140.8572887601693
 20
109.0044043173881
 30
0.0
 11
145.5647325682325
 21
109.0044043173881
 31
0.0
  0
LINE
  5
576F
330
574E
100
AcDbEntity
  8
AM_REFDIM
 62
     0
370
    -2
100
AcDbLine
 10
140.8572887601693
 20
106.0044043173881
 30
0.0
 11
145.5647325682325
 21
106.0044043173881
 31
0.0
  0
LINE
  5
5770
330
574E
100
AcDbEntity
  8
AM_REFDIM
 62
     0
370
    -2
100
AcDbLine
 10
144.3147325682325
 20
111.5044043173881
 30
0.0
 11
144.3147325682325
 21
114.0044043173881
 31
0.0
  0
LINE
  5
5771
330
574E
100
AcDbEntity
  8
AM_REFDIM
 62
     0
370
    -2
100
AcDbLine
 10
144.3147325682325
 20
103.504404317388
 30
0.0
 11
144.3147325682325
 21
101.0044043173881
 31
0.0
  0
LINE
  5
5772
330
574E
100
AcDbEntity
  8
AM_REFDIM
 62
     0
370
    -2
100
AcDbLine
 10
144.3147325682325
 20
101.0044043173881
 30
0.0
 11
141.6480659015659
 21
101.0044043173881
 31
0.0
  0
LINE
  5
5773
330
574E
100
AcDbEntity
  8
AM_REFDIM
 62
     0
370
    -2
100
AcDbLine
 10
144.3147325682325
 20
109.0044043173881
 30
0.0
 11
144.3147325682325
 21
106.0044043173881
 31
0.0
  0
SOLID
  5
5774
330
574E
100
AcDbEntity
  8
AM_REFDIM
 62
     0
100
AcDbTrace
 10
143.8980659015659
 20
111.5044043173881
 30
0.0
 11
144.7313992348992
 21
111.5044043173881
 31
0.0
 12
144.3147325682325
 22
109.0044043173881
 32
0.0
 13
144.3147325682325
 23
109.0044043173881
 33
0.0
  0
SOLID
  5
5775
330
574E
100
AcDbEntity
  8
AM_REFDIM
 62
     0
100
AcDbTrace
 10
143.8980659015659
 20
103.504404317388
 30
0.0
 11
144.7313992348992
 21
103.504404317388
 31
0.0
 12
144.3147325682325
 22
106.0044043173881
 32
0.0
 13
144.3147325682325
 23
106.0044043173881
 33
0.0
  0
MTEXT
  5
5776
330
574E
100
AcDbEntity
  8
AM_REFDIM
 62
     0
100
AcDbMText
 10
142.4813992348991
 20
103.2544043173881
 30
0.0
 40
2.5
 41
0.0
 71
     5
 72
     1
  1
3
 73
     1
 44
1.0
  0
POINT
  5
5777
330
574E
100
AcDbEntity
  8
Defpoints
 62
     0
100
AcDbPoint
 10
139.3572887601693
 20
109.0044043173881
 30
0.0
  0
POINT
  5
5778
330
574E
100
AcDbEntity
  8
Defpoints
 62
     0
100
AcDbPoint
 10
139.3572887601693
 20
106.0044043173881
 30
0.0
  0
POINT
  5
5779
330
574E
100
AcDbEntity
  8
Defpoints
 62
     0
100
AcDbPoint
 10
144.3147325682325
 20
106.0044043173881
 30
0.0
  0
ENDBLK
  5
575C
330
574E
100
AcDbEntity
  8
0
100
AcDbBlockEnd
  0
BLOCK
  5
5790
330
5786
100
AcDbEntity
  8
0
100
AcDbBlockBegin
  2
*D65
 70
     1
 10
0.0
 20
0.0
 30
0.0
  3
*D65
  1

  0
LINE
  5
57A3
330
5786
100
AcDbEntity
  8
AM_REFDIM
 62
     0
370
    -2
100
AcDbLine
 10
213.9344740446718
 20
248.0370913254594
 30
0.0
 11
213.9344740446718
 21
273.375548350739
 31
0.0
  0
LINE
  5
57A4
330
5786
100
AcDbEntity
  8
AM_REFDIM
 62
     0
370
    -2
100
AcDbLine
 10
337.5972551646345
 20
240.0584733403027
 30
0.0
 11
337.5972551646345
 21
273.375548350739
 31
0.0
  0
LINE
  5
57A5
330
5786
100
AcDbEntity
  8
AM_REFDIM
 62
     0
370
    -2
100
AcDbLine
 10
216.4344740446718
 20
272.1255483507391
 30
0.0
 11
335.0972551646345
 21
272.1255483507391
 31
0.0
  0
SOLID
  5
57A6
330
5786
100
AcDbEntity
  8
AM_REFDIM
 62
     0
100
AcDbTrace
 10
216.4344740446718
 20
272.5422150174058
 30
0.0
 11
216.4344740446718
 21
271.7088816840724
 31
0.0
 12
213.9344740446718
 22
272.1255483507391
 32
0.0
 13
213.9344740446718
 23
272.1255483507391
 33
0.0
  0
SOLID
  5
57A7
330
5786
100
AcDbEntity
  8
AM_REFDIM
 62
     0
100
AcDbTrace
 10
335.0972551646345
 20
272.5422150174058
 30
0.0
 11
335.0972551646345
 21
271.7088816840724
 31
0.0
 12
337.5972551646345
 22
272.1255483507391
 32
0.0
 13
337.5972551646345
 23
272.1255483507391
 33
0.0
  0
MTEXT
  5
57A8
330
5786
100
AcDbEntity
  8
AM_REFDIM
 62
     0
100
AcDbMText
 10
275.7658646046531
 20
274.3755483507391
 30
0.0
 40
2.5
 41
0.0
 71
     5
 72
     1
  1
124
 73
     1
 44
1.0
  0
POINT
  5
57A9
330
5786
100
AcDbEntity
  8
Defpoints
 62
     0
100
AcDbPoint
 10
213.9344740446718
 20
246.5370913254594
 30
0.0
  0
POINT
  5
57AA
330
5786
100
AcDbEntity
  8
Defpoints
 62
     0
100
AcDbPoint
 10
337.5972551646345
 20
238.5584733403026
 30
0.0
  0
POINT
  5
57AB
330
5786
100
AcDbEntity
  8
Defpoints
 62
     0
100
AcDbPoint
 10
337.5972551646345
 20
272.1255483507391
 30
0.0
  0
ENDBLK
  5
5791
330
5786
100
AcDbEntity
  8
0
100
AcDbBlockEnd
  0
BLOCK
  5
57C7
330
57BD
100
AcDbEntity
  8
0
100
AcDbBlockBegin
  2
*D66
 70
     1
 10
0.0
 20
0.0
 30
0.0
  3
*D66
  1

  0
LINE
  5
57D7
330
57BD
100
AcDbEntity
  8
AM_REFDIM
 62
     0
370
    -2
100
AcDbLine
 10
252.8340712442679
 20
254.0380986718698
 30
0.0
 11
252.8340712442679
 21
265.7880986718698
 31
0.0
  0
LINE
  5
57D8
330
57BD
100
AcDbEntity
  8
AM_REFDIM
 62
     0
370
    -2
100
AcDbLine
 10
287.8340712442679
 20
254.0380986718698
 30
0.0
 11
287.8340712442679
 21
265.7880986718698
 31
0.0
  0
LINE
  5
57D9
330
57BD
100
AcDbEntity
  8
AM_REFDIM
 62
     0
370
    -2
100
AcDbLine
 10
255.3340712442679
 20
264.5380986718698
 30
0.0
 11
285.3340712442679
 21
264.5380986718698
 31
0.0
  0
SOLID
  5
57DA
330
57BD
100
AcDbEntity
  8
AM_REFDIM
 62
     0
100
AcDbTrace
 10
255.3340712442679
 20
264.9547653385365
 30
0.0
 11
255.3340712442679
 21
264.1214320052031
 31
0.0
 12
252.8340712442679
 22
264.5380986718698
 32
0.0
 13
252.8340712442679
 23
264.5380986718698
 33
0.0
  0
SOLID
  5
57DB
330
57BD
100
AcDbEntity
  8
AM_REFDIM
 62
     0
100
AcDbTrace
 10
285.3340712442679
 20
264.9547653385365
 30
0.0
 11
285.3340712442679
 21
264.1214320052031
 31
0.0
 12
287.8340712442679
 22
264.5380986718698
 32
0.0
 13
287.8340712442679
 23
264.5380986718698
 33
0.0
  0
MTEXT
  5
57DC
330
57BD
100
AcDbEntity
  8
AM_REFDIM
 62
     0
100
AcDbMText
 10
270.3340712442679
 20
266.7880986718698
 30
0.0
 40
2.5
 41
0.0
 71
     5
 72
     1
  1
35
 73
     1
 44
1.0
  0
POINT
  5
57DD
330
57BD
100
AcDbEntity
  8
Defpoints
 62
     0
100
AcDbPoint
 10
252.8340712442679
 20
252.5380986718698
 30
0.0
  0
POINT
  5
57DE
330
57BD
100
AcDbEntity
  8
Defpoints
 62
     0
100
AcDbPoint
 10
287.8340712442679
 20
252.5380986718698
 30
0.0
  0
POINT
  5
57DF
330
57BD
100
AcDbEntity
  8
Defpoints
 62
     0
100
AcDbPoint
 10
287.8340712442679
 20
264.5380986718698
 30
0.0
  0
ENDBLK
  5
57C8
330
57BD
100
AcDbEntity
  8
0
100
AcDbBlockEnd
  0
BLOCK
  5
57FA
330
57F0
100
AcDbEntity
  8
0
100
AcDbBlockBegin
  2
*D67
 70
     1
 10
0.0
 20
0.0
 30
0.0
  3
*D67
  1

  0
LINE
  5
5808
330
57F0
100
AcDbEntity
  8
AM_REFDIM
 62
     0
370
    -2
100
AcDbLine
 10
287.5840712442679
 20
248.0380986718697
 30
0.0
 11
299.3340712442679
 21
248.0380986718697
 31
0.0
  0
LINE
  5
5809
330
57F0
100
AcDbEntity
  8
AM_REFDIM
 62
     0
370
    -2
100
AcDbLine
 10
287.5840712442679
 20
223.036083979049
 30
0.0
 11
299.3340712442679
 21
223.036083979049
 31
0.0
  0
LINE
  5
580A
330
57F0
100
AcDbEntity
  8
AM_REFDIM
 62
     0
370
    -2
100
AcDbLine
 10
298.0840712442679
 20
245.5380986718697
 30
0.0
 11
298.0840712442679
 21
225.536083979049
 31
0.0
  0
SOLID
  5
580B
330
57F0
100
AcDbEntity
  8
AM_REFDIM
 62
     0
100
AcDbTrace
 10
297.6674045776012
 20
245.5380986718697
 30
0.0
 11
298.5007379109346
 21
245.5380986718697
 31
0.0
 12
298.0840712442679
 22
248.0380986718697
 32
0.0
 13
298.0840712442679
 23
248.0380986718697
 33
0.0
  0
SOLID
  5
580C
330
57F0
100
AcDbEntity
  8
AM_REFDIM
 62
     0
100
AcDbTrace
 10
297.6674045776012
 20
225.536083979049
 30
0.0
 11
298.5007379109346
 21
225.536083979049
 31
0.0
 12
298.0840712442679
 22
223.036083979049
 32
0.0
 13
298.0840712442679
 23
223.036083979049
 33
0.0
  0
MTEXT
  5
580D
330
57F0
100
AcDbEntity
  8
AM_REFDIM
 62
     0
100
AcDbMText
 10
295.8340712442678
 20
235.5370913254594
 30
0.0
 40
2.5
 41
0.0
 71
     5
 72
     1
  1
25
 11
0.0000000000000001
 21
1.0
 31
0.0
 73
     1
 44
1.0
  0
POINT
  5
580E
330
57F0
100
AcDbEntity
  8
Defpoints
 62
     0
100
AcDbPoint
 10
286.0840712442679
 20
248.0380986718697
 30
0.0
  0
POINT
  5
580F
330
57F0
100
AcDbEntity
  8
Defpoints
 62
     0
100
AcDbPoint
 10
286.0840712442679
 20
223.036083979049
 30
0.0
  0
POINT
  5
5810
330
57F0
100
AcDbEntity
  8
Defpoints
 62
     0
100
AcDbPoint
 10
298.0840712442679
 20
223.036083979049
 30
0.0
  0
ENDBLK
  5
57FB
330
57F0
100
AcDbEntity
  8
0
100
AcDbBlockEnd
  0
BLOCK
  5
582B
330
5821
100
AcDbEntity
  8
0
100
AcDbBlockBegin
  2
*D68
 70
     1
 10
0.0
 20
0.0
 30
0.0
  3
*D68
  1

  0
LINE
  5
5839
330
5821
100
AcDbEntity
  8
AM_REFDIM
 62
     0
370
    -2
100
AcDbLine
 10
287.5840712442679
 20
251.5380986718697
 30
0.0
 11
313.2005920713818
 21
251.5380986718697
 31
0.0
  0
LINE
  5
583A
330
5821
100
AcDbEntity
  8
AM_REFDIM
 62
     0
370
    -2
100
AcDbLine
 10
287.5840712442679
 20
219.536083979049
 30
0.0
 11
313.2005920713818
 21
219.536083979049
 31
0.0
  0
LINE
  5
583B
330
5821
100
AcDbEntity
  8
AM_REFDIM
 62
     0
370
    -2
100
AcDbLine
 10
311.9505920713818
 20
249.0380986718697
 30
0.0
 11
311.9505920713818
 21
222.036083979049
 31
0.0
  0
SOLID
  5
583C
330
5821
100
AcDbEntity
  8
AM_REFDIM
 62
     0
100
AcDbTrace
 10
311.5339254047151
 20
249.0380986718697
 30
0.0
 11
312.3672587380485
 21
249.0380986718697
 31
0.0
 12
311.9505920713818
 22
251.5380986718697
 32
0.0
 13
311.9505920713818
 23
251.5380986718697
 33
0.0
  0
SOLID
  5
583D
330
5821
100
AcDbEntity
  8
AM_REFDIM
 62
     0
100
AcDbTrace
 10
311.5339254047151
 20
222.036083979049
 30
0.0
 11
312.3672587380485
 21
222.036083979049
 31
0.0
 12
311.9505920713818
 22
219.536083979049
 32
0.0
 13
311.9505920713818
 23
219.536083979049
 33
0.0
  0
MTEXT
  5
583E
330
5821
100
AcDbEntity
  8
AM_REFDIM
 62
     0
100
AcDbMText
 10
309.7005920713817
 20
235.5370913254594
 30
0.0
 40
2.5
 41
0.0
 71
     5
 72
     1
  1
32
 11
0.0000000000000001
 21
1.0
 31
0.0
 73
     1
 44
1.0
  0
POINT
  5
583F
330
5821
100
AcDbEntity
  8
Defpoints
 62
     0
100
AcDbPoint
 10
286.0840712442679
 20
251.5380986718697
 30
0.0
  0
POINT
  5
5840
330
5821
100
AcDbEntity
  8
Defpoints
 62
     0
100
AcDbPoint
 10
286.0840712442679
 20
219.536083979049
 30
0.0
  0
POINT
  5
5841
330
5821
100
AcDbEntity
  8
Defpoints
 62
     0
100
AcDbPoint
 10
311.9505920713818
 20
219.536083979049
 30
0.0
  0
ENDBLK
  5
582C
330
5821
100
AcDbEntity
  8
0
100
AcDbBlockEnd
  0
BLOCK
  5
5855
330
584B
100
AcDbEntity
  8
0
100
AcDbBlockBegin
  2
*D69
 70
     1
 10
0.0
 20
0.0
 30
0.0
  3
*D69
  1

  0
LINE
  5
5865
330
584B
100
AcDbEntity
  8
AM_REFDIM
 62
     0
370
    -2
100
AcDbLine
 10
282.8340712442679
 20
259.0380986718698
 30
0.0
 11
323.5613891169926
 21
259.0380986718698
 31
0.0
  0
LINE
  5
5866
330
584B
100
AcDbEntity
  8
AM_REFDIM
 62
     0
370
    -2
100
AcDbLine
 10
282.8340712442679
 20
212.036083979049
 30
0.0
 11
323.5613891169926
 21
212.036083979049
 31
0.0
  0
LINE
  5
5867
330
584B
100
AcDbEntity
  8
AM_REFDIM
 62
     0
370
    -2
100
AcDbLine
 10
322.3113891169925
 20
256.5380986718698
 30
0.0
 11
322.3113891169925
 21
214.536083979049
 31
0.0
  0
SOLID
  5
5868
330
584B
100
AcDbEntity
  8
AM_REFDIM
 62
     0
100
AcDbTrace
 10
321.8947224503259
 20
256.5380986718698
 30
0.0
 11
322.7280557836592
 21
256.5380986718698
 31
0.0
 12
322.3113891169925
 22
259.0380986718698
 32
0.0
 13
322.3113891169925
 23
259.0380986718698
 33
0.0
  0
SOLID
  5
5869
330
584B
100
AcDbEntity
  8
AM_REFDIM
 62
     0
100
AcDbTrace
 10
321.8947224503259
 20
214.536083979049
 30
0.0
 11
322.7280557836592
 21
214.536083979049
 31
0.0
 12
322.3113891169925
 22
212.036083979049
 32
0.0
 13
322.3113891169925
 23
212.036083979049
 33
0.0
  0
MTEXT
  5
586A
330
584B
100
AcDbEntity
  8
AM_REFDIM
 62
     0
100
AcDbMText
 10
320.0613891169925
 20
235.5370913254594
 30
0.0
 40
2.5
 41
0.0
 71
     5
 72
     1
  1
47
 11
0.0000000000000001
 21
1.0
 31
0.0
 73
     1
 44
1.0
  0
POINT
  5
586B
330
584B
100
AcDbEntity
  8
Defpoints
 62
     0
100
AcDbPoint
 10
281.3340712442679
 20
259.0380986718698
 30
0.0
  0
POINT
  5
586C
330
584B
100
AcDbEntity
  8
Defpoints
 62
     0
100
AcDbPoint
 10
281.3340712442679
 20
212.036083979049
 30
0.0
  0
POINT
  5
586D
330
584B
100
AcDbEntity
  8
Defpoints
 62
     0
100
AcDbPoint
 10
322.3113891169925
 20
212.036083979049
 30
0.0
  0
ENDBLK
  5
5856
330
584B
100
AcDbEntity
  8
0
100
AcDbBlockEnd
  0
BLOCK
  5
588B
330
5881
100
AcDbEntity
  8
0
100
AcDbBlockBegin
  2
*D70
 70
     1
 10
0.0
 20
0.0
 30
0.0
  3
*D70
  1

  0
LINE
  5
589D
330
5881
100
AcDbEntity
  8
AM_REFDIM
 62
     0
370
    -2
100
AcDbLine
 10
212.4344740446718
 20
246.5370913254594
 30
0.0
 11
203.2004260650655
 21
246.5370913254594
 31
0.0
  0
LINE
  5
589E
330
5881
100
AcDbEntity
  8
AM_REFDIM
 62
     0
370
    -2
100
AcDbLine
 10
212.4344740446718
 20
225.5370913254594
 30
0.0
 11
203.2004260650655
 21
225.5370913254594
 31
0.0
  0
LINE
  5
589F
330
5881
100
AcDbEntity
  8
AM_REFDIM
 62
     0
370
    -2
100
AcDbLine
 10
204.4504260650656
 20
244.0370913254594
 30
0.0
 11
204.4504260650656
 21
228.0370913254594
 31
0.0
  0
SOLID
  5
58A0
330
5881
100
AcDbEntity
  8
AM_REFDIM
 62
     0
100
AcDbTrace
 10
204.0337593983989
 20
244.0370913254594
 30
0.0
 11
204.8670927317322
 21
244.0370913254594
 31
0.0
 12
204.4504260650656
 22
246.5370913254594
 32
0.0
 13
204.4504260650656
 23
246.5370913254594
 33
0.0
  0
SOLID
  5
58A1
330
5881
100
AcDbEntity
  8
AM_REFDIM
 62
     0
100
AcDbTrace
 10
204.0337593983989
 20
228.0370913254594
 30
0.0
 11
204.8670927317322
 21
228.0370913254594
 31
0.0
 12
204.4504260650656
 22
225.5370913254594
 32
0.0
 13
204.4504260650656
 23
225.5370913254594
 33
0.0
  0
MTEXT
  5
58A2
330
5881
100
AcDbEntity
  8
AM_REFDIM
 62
     0
100
AcDbMText
 10
202.2004260650655
 20
236.0370913254595
 30
0.0
 40
2.5
 41
0.0
 71
     5
 72
     1
  1
21
 11
0.0000000000000001
 21
1.0
 31
0.0
 73
     1
 44
1.0
  0
POINT
  5
58A3
330
5881
100
AcDbEntity
  8
Defpoints
 62
     0
100
AcDbPoint
 10
213.9344740446718
 20
246.5370913254594
 30
0.0
  0
POINT
  5
58A4
330
5881
100
AcDbEntity
  8
Defpoints
 62
     0
100
AcDbPoint
 10
213.9344740446718
 20
225.5370913254594
 30
0.0
  0
POINT
  5
58A5
330
5881
100
AcDbEntity
  8
Defpoints
 62
     0
100
AcDbPoint
 10
204.4504260650656
 20
225.5370913254594
 30
0.0
  0
ENDBLK
  5
588C
330
5881
100
AcDbEntity
  8
0
100
AcDbBlockEnd
  0
BLOCK
  5
58C0
330
58B6
100
AcDbEntity
  8
0
100
AcDbBlockBegin
  2
*D71
 70
     1
 10
0.0
 20
0.0
 30
0.0
  3
*D71
  1

  0
LINE
  5
58CE
330
58B6
100
AcDbEntity
  8
AM_REFDIM
 62
     0
370
    -2
100
AcDbLine
 10
260.8340712442679
 20
211.7860839790492
 30
0.0
 11
260.8340712442679
 21
193.3556730462312
 31
0.0
  0
LINE
  5
58CF
330
58B6
100
AcDbEntity
  8
AM_REFDIM
 62
     0
370
    -2
100
AcDbLine
 10
279.8340712442679
 20
211.7860839790492
 30
0.0
 11
279.8340712442679
 21
193.3556730462312
 31
0.0
  0
LINE
  5
58D0
330
58B6
100
AcDbEntity
  8
AM_REFDIM
 62
     0
370
    -2
100
AcDbLine
 10
263.3340712442679
 20
194.6056730462312
 30
0.0
 11
277.3340712442679
 21
194.6056730462312
 31
0.0
  0
SOLID
  5
58D1
330
58B6
100
AcDbEntity
  8
AM_REFDIM
 62
     0
100
AcDbTrace
 10
263.3340712442679
 20
195.0223397128978
 30
0.0
 11
263.3340712442679
 21
194.1890063795645
 31
0.0
 12
260.8340712442679
 22
194.6056730462312
 32
0.0
 13
260.8340712442679
 23
194.6056730462312
 33
0.0
  0
SOLID
  5
58D2
330
58B6
100
AcDbEntity
  8
AM_REFDIM
 62
     0
100
AcDbTrace
 10
277.3340712442679
 20
195.0223397128978
 30
0.0
 11
277.3340712442679
 21
194.1890063795645
 31
0.0
 12
279.8340712442679
 22
194.6056730462312
 32
0.0
 13
279.8340712442679
 23
194.6056730462312
 33
0.0
  0
MTEXT
  5
58D3
330
58B6
100
AcDbEntity
  8
AM_REFDIM
 62
     0
100
AcDbMText
 10
270.3340712442679
 20
196.8556730462312
 30
0.0
 40
2.5
 41
0.0
 71
     5
 72
     1
  1
19
 73
     1
 44
1.0
  0
POINT
  5
58D4
330
58B6
100
AcDbEntity
  8
Defpoints
 62
     0
100
AcDbPoint
 10
260.8340712442679
 20
213.2860839790492
 30
0.0
  0
POINT
  5
58D5
330
58B6
100
AcDbEntity
  8
Defpoints
 62
     0
100
AcDbPoint
 10
279.8340712442679
 20
213.2860839790492
 30
0.0
  0
POINT
  5
58D6
330
58B6
100
AcDbEntity
  8
Defpoints
 62
     0
100
AcDbPoint
 10
279.8340712442679
 20
194.6056730462312
 30
0.0
  0
ENDBLK
  5
58C1
330
58B6
100
AcDbEntity
  8
0
100
AcDbBlockEnd
  0
BLOCK
  5
590B
330
5901
100
AcDbEntity
  8
0
100
AcDbBlockBegin
  2
*D74
 70
     1
 10
0.0
 20
0.0
 30
0.0
  3
*D74
  1

  0
LINE
  5
5917
330
5901
100
AcDbEntity
  8
AM_REFDIM
 62
     0
370
    -2
100
AcDbLine
 10
304.1959972213756
 20
201.0859551156352
 30
0.0
 11
295.6959972213756
 21
201.0859551156352
 31
0.0
  0
LINE
  5
5918
330
5901
100
AcDbEntity
  8
AM_REFDIM
 62
     0
370
    -2
100
AcDbLine
 10
295.6959972213756
 20
201.0859551156352
 30
0.0
 11
283.5825926378995
 21
215.1759134134076
 31
0.0
  0
LINE
  5
5919
330
5901
100
AcDbEntity
  8
AM_REFDIM
 62
     0
370
    -2
100
AcDbLine
 10
276.0855498506362
 20
223.8962545446905
 30
0.0
 11
274.4557579403615
 21
225.7919808775781
 31
0.0
  0
MTEXT
  5
591A
330
5901
100
AcDbEntity
  8
AM_REFDIM
 62
     0
100
AcDbMText
 10
300.4459972213755
 20
203.3359551156352
 30
0.0
 40
2.5
 41
0.0
 71
     5
 72
     1
  1
\U+22056.5
 73
     1
 44
1.0
  0
LINE
  5
591B
330
5901
100
AcDbEntity
  8
AM_REFDIM
 62
     0
370
    -2
100
AcDbLine
 10
277.7153417609107
 20
222.0005282118029
 30
0.0
 11
281.9528007276248
 21
217.0716397462952
 31
0.0
  0
SOLID
  5
591C
330
5901
100
AcDbEntity
  8
AM_REFDIM
 62
     0
100
AcDbTrace
 10
276.4015042394508
 20
224.1678865297363
 30
0.0
 11
275.7695954618215
 21
223.6246225596447
 31
0.0
 12
277.7153417609107
 22
222.0005282118029
 32
0.0
 13
277.7153417609107
 23
222.0005282118029
 33
0.0
  0
SOLID
  5
591D
330
5901
100
AcDbEntity
  8
AM_REFDIM
 62
     0
100
AcDbTrace
 10
283.8985470267141
 20
215.4475453984534
 30
0.0
 11
283.2666382490848
 21
214.9042814283618
 31
0.0
 12
281.9528007276248
 22
217.0716397462952
 32
0.0
 13
281.9528007276248
 23
217.0716397462952
 33
0.0
  0
POINT
  5
591E
330
5901
100
AcDbEntity
  8
Defpoints
 62
     0
100
AcDbPoint
 10
281.9528007276248
 20
217.0716397462952
 30
0.0
  0
POINT
  5
591F
330
5901
100
AcDbEntity
  8
Defpoints
 62
     0
100
AcDbPoint
 10
277.7153417609107
 20
222.0005282118029
 30
0.0
  0
ENDBLK
  5
590C
330
5901
100
AcDbEntity
  8
0
100
AcDbBlockEnd
  0
BLOCK
  5
5936
330
592C
100
AcDbEntity
  8
0
100
AcDbBlockBegin
  2
*D75
 70
     1
 10
0.0
 20
0.0
 30
0.0
  3
*D75
  1

  0
LINE
  5
5B41
330
592C
100
AcDbEntity
  8
AM_REFDIM
 62
     0
370
    -2
100
AcDbLine
 10
331.0972551646345
 20
167.2733930981469
 30
0.0
 11
363.8099822894807
 21
167.2733930981469
 31
0.0
  0
LINE
  5
5B42
330
592C
100
AcDbEntity
  8
AM_REFDIM
 62
     0
370
    -2
100
AcDbLine
 10
289.3340712442679
 20
106.004404317388
 30
0.0
 11
363.8099822894806
 21
106.004404317388
 31
0.0
  0
LINE
  5
5B43
330
592C
100
AcDbEntity
  8
AM_REFDIM
 62
     0
370
    -2
100
AcDbLine
 10
362.5599822894807
 20
164.7733930981468
 30
0.0
 11
362.5599822894806
 21
108.504404317388
 31
0.0
  0
SOLID
  5
5B44
330
592C
100
AcDbEntity
  8
AM_REFDIM
 62
     0
100
AcDbTrace
 10
362.143315622814
 20
164.7733930981468
 30
0.0
 11
362.9766489561474
 21
164.7733930981468
 31
0.0
 12
362.5599822894807
 22
167.2733930981469
 32
0.0
 13
362.5599822894807
 23
167.2733930981469
 33
0.0
  0
SOLID
  5
5B45
330
592C
100
AcDbEntity
  8
AM_REFDIM
 62
     0
100
AcDbTrace
 10
362.1433156228139
 20
108.504404317388
 30
0.0
 11
362.9766489561473
 21
108.504404317388
 31
0.0
 12
362.5599822894806
 22
106.004404317388
 32
0.0
 13
362.5599822894806
 23
106.004404317388
 33
0.0
  0
MTEXT
  5
5B46
330
592C
100
AcDbEntity
  8
AM_REFDIM
 62
     0
100
AcDbMText
 10
360.3099822894806
 20
136.6388987077675
 30
0.0
 40
2.5
 41
0.0
 71
     5
 72
     1
  1
61
 11
0.0000000000000001
 21
1.0
 31
0.0
 73
     1
 44
1.0
  0
POINT
  5
5B47
330
592C
100
AcDbEntity
  8
Defpoints
 62
     0
100
AcDbPoint
 10
329.5972551646345
 20
167.2733930981469
 30
0.0
  0
POINT
  5
5B48
330
592C
100
AcDbEntity
  8
Defpoints
 62
     0
100
AcDbPoint
 10
287.8340712442679
 20
106.004404317388
 30
0.0
  0
POINT
  5
5B49
330
592C
100
AcDbEntity
  8
Defpoints
 62
     0
100
AcDbPoint
 10
362.5599822894806
 20
106.004404317388
 30
0.0
  0
ENDBLK
  5
5937
330
592C
100
AcDbEntity
  8
0
100
AcDbBlockEnd
  0
BLOCK
  5
5A6A
330
5A60
100
AcDbEntity
  8
0
100
AcDbBlockBegin
  2
*D76
 70
     1
 10
0.0
 20
0.0
 30
0.0
  3
*D76
  1

  0
LINE
  5
5B4A
330
5A60
100
AcDbEntity
  8
AM_REFDIM
 62
     0
370
    -2
100
AcDbLine
 10
244.8589889100579
 20
64.00440431738812
 30
0.0
 11
377.1028050135307
 21
64.00440431738807
 31
0.0
  0
LINE
  5
5B4B
330
5A60
100
AcDbEntity
  8
AM_REFDIM
 62
     0
370
    -2
100
AcDbLine
 10
331.0972551646346
 20
169.7733930981467
 30
0.0
 11
377.1028050135308
 21
169.7733930981467
 31
0.0
  0
LINE
  5
5B4C
330
5A60
100
AcDbEntity
  8
AM_REFDIM
 62
     0
370
    -2
100
AcDbLine
 10
375.8528050135307
 20
66.50440431738807
 30
0.0
 11
375.8528050135308
 21
167.2733930981467
 31
0.0
  0
SOLID
  5
5B4D
330
5A60
100
AcDbEntity
  8
AM_REFDIM
 62
     0
100
AcDbTrace
 10
375.4361383468641
 20
66.50440431738807
 30
0.0
 11
376.2694716801974
 21
66.50440431738807
 31
0.0
 12
375.8528050135307
 22
64.00440431738807
 32
0.0
 13
375.8528050135307
 23
64.00440431738807
 33
0.0
  0
SOLID
  5
5B4E
330
5A60
100
AcDbEntity
  8
AM_REFDIM
 62
     0
100
AcDbTrace
 10
375.4361383468641
 20
167.2733930981467
 30
0.0
 11
376.2694716801975
 21
167.2733930981467
 31
0.0
 12
375.8528050135308
 22
169.7733930981467
 32
0.0
 13
375.8528050135308
 23
169.7733930981467
 33
0.0
  0
MTEXT
  5
5B4F
330
5A60
100
AcDbEntity
  8
AM_REFDIM
 62
     0
100
AcDbMText
 10
373.6028050135307
 20
116.8888987077674
 30
0.0
 40
2.5
 41
0.0
 71
     5
 72
     1
  1
106
 11
0.0000000000000001
 21
1.0
 31
0.0
 73
     1
 44
1.0
  0
POINT
  5
5B50
330
5A60
100
AcDbEntity
  8
Defpoints
 62
     0
100
AcDbPoint
 10
243.3589889100579
 20
64.00440431738812
 30
0.0
  0
POINT
  5
5B51
330
5A60
100
AcDbEntity
  8
Defpoints
 62
     0
100
AcDbPoint
 10
329.5972551646346
 20
169.7733930981467
 30
0.0
  0
POINT
  5
5B52
330
5A60
100
AcDbEntity
  8
Defpoints
 62
     0
100
AcDbPoint
 10
375.8528050135308
 20
169.7733930981467
 30
0.0
  0
ENDBLK
  5
5A6B
330
5A60
100
AcDbEntity
  8
0
100
AcDbBlockEnd
  0
BLOCK
  5
5B62
330
5B58
100
AcDbEntity
  8
0
100
AcDbBlockBegin
  2
*D77
 70
     1
 10
0.0
 20
0.0
 30
0.0
  3
*D77
  1

  0
LINE
  5
5B68
330
5B58
100
AcDbEntity
  8
AM_REFDIM
 62
     0
370
    -2
100
AcDbLine
 10
239.3589889100578
 20
96.00440431738812
 30
0.0
 11
320.4133648885654
 21
96.0044043173881
 31
0.0
  0
LINE
  5
5B69
330
5B58
100
AcDbEntity
  8
AM_REFDIM
 62
     0
370
    -2
100
AcDbLine
 10
282.8340712442679
 20
106.004404317388
 30
0.0
 11
320.4133648885654
 21
106.004404317388
 31
0.0
  0
LINE
  5
5B6A
330
5B58
100
AcDbEntity
  8
AM_REFDIM
 62
     0
370
    -2
100
AcDbLine
 10
319.1633648885654
 20
98.5044043173881
 30
0.0
 11
319.1633648885654
 21
103.504404317388
 31
0.0
  0
SOLID
  5
5B6B
330
5B58
100
AcDbEntity
  8
AM_REFDIM
 62
     0
100
AcDbTrace
 10
318.7466982218987
 20
98.5044043173881
 30
0.0
 11
319.580031555232
 21
98.5044043173881
 31
0.0
 12
319.1633648885654
 22
96.0044043173881
 32
0.0
 13
319.1633648885654
 23
96.0044043173881
 33
0.0
  0
SOLID
  5
5B6C
330
5B58
100
AcDbEntity
  8
AM_REFDIM
 62
     0
100
AcDbTrace
 10
318.7466982218987
 20
103.504404317388
 30
0.0
 11
319.580031555232
 21
103.504404317388
 31
0.0
 12
319.1633648885654
 22
106.004404317388
 32
0.0
 13
319.1633648885654
 23
106.004404317388
 33
0.0
  0
MTEXT
  5
5B6D
330
5B58
100
AcDbEntity
  8
AM_REFDIM
 62
     0
100
AcDbMText
 10
316.9133648885654
 20
101.0044043173881
 30
0.0
 40
2.5
 41
0.0
 71
     5
 72
     1
  1
10
 11
0.0000000000000001
 21
1.0
 31
0.0
 73
     1
 44
1.0
  0
POINT
  5
5B6E
330
5B58
100
AcDbEntity
  8
Defpoints
 62
     0
100
AcDbPoint
 10
237.8589889100578
 20
96.00440431738812
 30
0.0
  0
POINT
  5
5B6F
330
5B58
100
AcDbEntity
  8
Defpoints
 62
     0
100
AcDbPoint
 10
281.3340712442679
 20
106.004404317388
 30
0.0
  0
POINT
  5
5B70
330
5B58
100
AcDbEntity
  8
Defpoints
 62
     0
100
AcDbPoint
 10
319.1633648885654
 20
106.004404317388
 30
0.0
  0
ENDBLK
  5
5B63
330
5B58
100
AcDbEntity
  8
0
100
AcDbBlockEnd
  0
BLOCK
  5
5B81
330
5B77
100
AcDbEntity
  8
0
100
AcDbBlockBegin
  2
*D78
 70
     1
 10
0.0
 20
0.0
 30
0.0
  3
*D78
  1

  0
LINE
  5
5B87
330
5B77
100
AcDbEntity
  8
AM_REFDIM
 62
     0
370
    -2
100
AcDbLine
 10
239.3589889100578
 20
96.00440431738812
 30
0.0
 11
270.149889080729
 21
96.00440431738812
 31
0.0
  0
LINE
  5
5B88
330
5B77
100
AcDbEntity
  8
AM_REFDIM
 62
     0
370
    -2
100
AcDbLine
 10
244.8589889100578
 20
64.00440431738812
 30
0.0
 11
270.149889080729
 21
64.00440431738812
 31
0.0
  0
LINE
  5
5B89
330
5B77
100
AcDbEntity
  8
AM_REFDIM
 62
     0
370
    -2
100
AcDbLine
 10
268.899889080729
 20
93.50440431738812
 30
0.0
 11
268.899889080729
 21
66.50440431738812
 31
0.0
  0
SOLID
  5
5B8A
330
5B77
100
AcDbEntity
  8
AM_REFDIM
 62
     0
100
AcDbTrace
 10
268.4832224140623
 20
93.50440431738812
 30
0.0
 11
269.3165557473957
 21
93.50440431738812
 31
0.0
 12
268.899889080729
 22
96.00440431738812
 32
0.0
 13
268.899889080729
 23
96.00440431738812
 33
0.0
  0
SOLID
  5
5B8B
330
5B77
100
AcDbEntity
  8
AM_REFDIM
 62
     0
100
AcDbTrace
 10
268.4832224140623
 20
66.50440431738812
 30
0.0
 11
269.3165557473957
 21
66.50440431738812
 31
0.0
 12
268.899889080729
 22
64.00440431738812
 32
0.0
 13
268.899889080729
 23
64.00440431738812
 33
0.0
  0
MTEXT
  5
5B8C
330
5B77
100
AcDbEntity
  8
AM_REFDIM
 62
     0
100
AcDbMText
 10
266.649889080729
 20
80.00440431738816
 30
0.0
 40
2.5
 41
0.0
 71
     5
 72
     1
  1
32
 11
0.0000000000000001
 21
1.0
 31
0.0
 73
     1
 44
1.0
  0
POINT
  5
5B8D
330
5B77
100
AcDbEntity
  8
Defpoints
 62
     0
100
AcDbPoint
 10
237.8589889100578
 20
96.00440431738812
 30
0.0
  0
POINT
  5
5B8E
330
5B77
100
AcDbEntity
  8
Defpoints
 62
     0
100
AcDbPoint
 10
243.3589889100578
 20
64.00440431738812
 30
0.0
  0
POINT
  5
5B8F
330
5B77
100
AcDbEntity
  8
Defpoints
 62
     0
100
AcDbPoint
 10
268.899889080729
 20
64.00440431738812
 30
0.0
  0
ENDBLK
  5
5B82
330
5B77
100
AcDbEntity
  8
0
100
AcDbBlockEnd
  0
ENDSEC
  0
SECTION
  2
ENTITIES
  0
INSERT
  5
5DE3
330
1F
100
AcDbEntity
  8
0
100
AcDbBlockReference
  2
*U2
 10
199.4479004203878
 20
14.89448078513873
 30
-8.748503673205181
  0
INSERT
  5
5DE4
330
1F
100
AcDbEntity
  8
0
100
AcDbBlockReference
  2
*U4
 10
199.4479004203878
 20
14.89448078513871
 30
-14.74850367320518
  0
INSERT
  5
5DE5
330
1F
100
AcDbEntity
  8
0
100
AcDbBlockReference
  2
*U6
 10
118.9225036421813
 20
83.90060187702733
 30
-8.791267702891762
 41
1.0
 42
1.0
  0
INSERT
  5
5DE6
330
1F
100
AcDbEntity
  8
0
100
AcDbBlockReference
  2
*U8
 10
118.9225036421817
 20
83.90060187702706
 30
-14.74850367320512
  0
INSERT
  5
5DE7
330
1F
100
AcDbEntity
  8
0
100
AcDbBlockReference
  2
*U10
 10
80.11161762407288
 20
194.7916439738816
 30
-361.0587231308402
 41
1.000000000000002
 42
1.000000000000002
 43
1.0
 50
180.0
210
-0.9934626506024073
220
0.1141576184844407
230
-0.0000000000000019
  0
INSERT
  5
5DE8
330
1F
100
AcDbEntity
  8
0
100
AcDbBlockReference
  2
*U12
 10
-543.2211056609436
 20
582.4024061949917
 30
1.748503673212357
 50
270.0
210
0.0000000000000185
220
-0.0000000000000001
230
-1.0
  0
INSERT
  5
5DE9
330
1F
100
AcDbEntity
  8
0
100
AcDbBlockReference
  2
*U14
 10
64.29507751472129
 20
64.39014253684082
 30
-32.24850367320519
 50
353.4449598305146
  0
INSERT
  5
5DEA
330
1F
100
AcDbEntity
  8
0
100
AcDbBlockReference
  2
*U16
 10
119.4356875625482
 20
84.51219065778593
 30
-14.76988568804848
  0
INSERT
  5
5DEB
330
1F
100
AcDbEntity
  8
0
100
AcDbBlockReference
  2
*U18
 10
356.3936462791706
 20
-269.6306923539034
 30
388.6245824435992
 50
89.99999999999998
210
1.0
220
0.0
230
0.0
  0
INSERT
  5
5DEC
330
1F
100
AcDbEntity
  8
0
100
AcDbBlockReference
  2
*U20
 10
172.4676193763012
 20
28.19688750932911
 30
-14.74850367320511
  0
INSERT
  5
5DED
330
1F
100
AcDbEntity
  8
0
100
AcDbBlockReference
  2
*U22
 10
519.158450879435
 20
98.74675398026424
 30
-27.24850367320462
 41
0.9999999999999955
 42
0.9999999999999992
 43
0.9999999999999928
 50
83.44495983051437
  0
INSERT
  5
5DEE
330
1F
100
AcDbEntity
  8
0
100
AcDbBlockReference
  2
*U22
 10
519.1584508794344
 20
98.74675398026417
 30
3.751496326795477
 41
0.999999999999996
 42
0.9999999999999992
 43
0.9999999999999932
 50
83.44495983051434
  0
INSERT
  5
5DEF
330
1F
100
AcDbEntity
  8
0
100
AcDbBlockReference
  2
*U24
 10
514.9544574482275
 20
75.77184154485525
 30
3.73358804820654
 50
83.44495983051459
  0
INSERT
  5
5DF0
330
1F
100
AcDbEntity
  8
0
100
AcDbBlockReference
  2
*U24
 10
514.9544574482275
 20
75.77184154485525
 30
-27.26641195179345
 50
83.44495983051459
  0
INSERT
  5
5DF1
330
1F
100
AcDbEntity
  8
0
100
AcDbBlockReference
  2
*U26
 10
208.4969538157194
 20
121.1295556322651
 30
-19.09850367320519
 50
353.4449598305146
  0
INSERT
  5
5DF2
330
1F
100
AcDbEntity
  8
0
100
AcDbBlockReference
  2
*U26
 10
208.4969538157194
 20
121.1295556322651
 30
-5.398503673205187
 50
353.4449598305146
  0
INSERT
  5
5DF3
330
1F
100
AcDbEntity
  8
0
100
AcDbBlockReference
  2
*U28
 10
65.87551292748372
 20
49.00502514823947
 30
-18.24850367320518
  0
VIEWPORT
  5
106
330
1B
100
AcDbEntity
 67
     1
  8
0
100
AcDbViewport
 10
233.4511789590923
 20
159.0605704836755
 30
0.0
 40
289.5902861537816
 41
245.3896635303097
 68
     1
 69
     1
 12
233.4511789590923
 22
159.0605704836755
 13
0.0
 23
0.0
 14
10.0
 24
10.0
 15
10.0
 25
10.0
 16
0.0
 26
0.0
 36
1.0
 17
0.0
 27
0.0
 37
0.0
 42
50.0
 43
0.0
 44
0.0
 45
245.3896635303097
 50
0.0
 51
0.0
 72
   100
 90
    32800
  1

281
     0
 71
     1
 74
     0
110
0.0
120
0.0
130
0.0
111
1.0
121
0.0
131
0.0
112
0.0
122
1.0
132
0.0
 79
     0
146
0.0
  0
VIEWPORT
  5
4D1A
330
1B
100
AcDbEntity
 67
     1
  8
AM_VIEWS
100
AcDbViewport
 10
275.7658646046531
 20
117.1546561246173
 30
0.0
 40
136.429059231959
 41
124.6408477518766
 68
     2
 69
     2
 12
0.0
 22
0.0
 13
0.0
 23
0.0
 14
10.0
 24
10.0
 15
10.0
 25
10.0
 16
0.0
 26
0.0
 36
1.0
 17
419.3063758039845
 27
231.4187207113972
 37
-11.74850367320518
 42
50.0
 43
0.0
 44
0.0
 45
124.6408477518766
 50
0.0
 51
0.0
 72
   100
341
10
341
10A
341
342
341
343
341
3F8
341
46A
341
56A1
341
4D19
341
4E04
341
4EA1
 90
    49152
  1

281
     0
 71
     1
 74
     1
110
0.0
120
0.0
130
0.0
111
1.0
121
0.0
131
0.0
112
0.0
122
1.0
132
0.0
 79
     0
146
0.0
  0
LINE
  5
4E05
330
1B
100
AcDbEntity
 67
     1
  8
AM_7
100
AcDbLine
 10
259.3340712442679
 20
103.004404317388
 30
0.0
 11
259.3340712442679
 21
112.004404317388
 31
0.0
  0
LINE
  5
4E08
330
1B
100
AcDbEntity
 67
     1
  8
AM_7
100
AcDbLine
 10
281.3340712442679
 20
103.004404317388
 30
0.0
 11
281.3340712442679
 21
112.004404317388
 31
0.0
  0
LINE
  5
4E0B
330
1B
100
AcDbEntity
 67
     1
  8
AM_7
100
AcDbLine
 10
249.8340712442679
 20
103.004404317388
 30
0.0
 11
249.8340712442679
 21
112.004404317388
 31
0.0
  0
LINE
  5
4E0E
330
1B
100
AcDbEntity
 67
     1
  8
AM_7
100
AcDbLine
 10
245.0840712442679
 20
126.4618043173879
 30
0.0
 11
245.0840712442679
 21
126.4618043173879
 31
0.0
  0
LINE
  5
4E0F
330
1B
100
AcDbEntity
 67
     1
  8
AM_7
100
AcDbLine
 10
245.0840712442679
 20
126.4618043173879
 30
0.0
 11
245.0840712442679
 21
126.4618043173879
 31
0.0
  0
LINE
  5
4E10
330
1B
100
AcDbEntity
 67
     1
  8
AM_7
100
AcDbLine
 10
232.0840712442679
 20
126.4618043173879
 30
0.0
 11
245.0840712442679
 21
126.4618043173879
 31
0.0
  0
LINE
  5
4E11
330
1B
100
AcDbEntity
 67
     1
  8
AM_7
100
AcDbLine
 10
245.0840712442679
 20
126.4618043173879
 30
0.0
 11
258.0840712442679
 21
126.4618043173879
 31
0.0
  0
LINE
  5
4E12
330
1B
100
AcDbEntity
 67
     1
  8
AM_7
100
AcDbLine
 10
245.0840712442679
 20
113.4618043173879
 30
0.0
 11
245.0840712442679
 21
126.4618043173879
 31
0.0
  0
LINE
  5
4E13
330
1B
100
AcDbEntity
 67
     1
  8
AM_7
100
AcDbLine
 10
245.0840712442679
 20
126.4618043173879
 30
0.0
 11
245.0840712442679
 21
139.4618043173879
 31
0.0
  0
LINE
  5
4E16
330
1B
100
AcDbEntity
 67
     1
  8
AM_7
100
AcDbLine
 10
277.9290712442679
 20
116.7618043173879
 30
0.0
 11
277.9290712442679
 21
116.7618043173879
 31
0.0
  0
LINE
  5
4E17
330
1B
100
AcDbEntity
 67
     1
  8
AM_7
100
AcDbLine
 10
277.9290712442679
 20
116.7618043173879
 30
0.0
 11
277.9290712442679
 21
116.7618043173879
 31
0.0
  0
LINE
  5
4E18
330
1B
100
AcDbEntity
 67
     1
  8
AM_7
100
AcDbLine
 10
268.9290712442679
 20
116.7618043173879
 30
0.0
 11
277.9290712442679
 21
116.7618043173879
 31
0.0
  0
LINE
  5
4E19
330
1B
100
AcDbEntity
 67
     1
  8
AM_7
100
AcDbLine
 10
277.9290712442679
 20
116.7618043173879
 30
0.0
 11
286.9290712442678
 21
116.7618043173879
 31
0.0
  0
LINE
  5
4E1A
330
1B
100
AcDbEntity
 67
     1
  8
AM_7
100
AcDbLine
 10
277.9290712442679
 20
107.7618043173879
 30
0.0
 11
277.9290712442679
 21
116.7618043173879
 31
0.0
  0
LINE
  5
4E1B
330
1B
100
AcDbEntity
 67
     1
  8
AM_7
100
AcDbLine
 10
277.9290712442679
 20
116.7618043173879
 30
0.0
 11
277.9290712442679
 21
125.7618043173879
 31
0.0
  0
LINE
  5
4E1E
330
1B
100
AcDbEntity
 67
     1
  8
AM_7
100
AcDbLine
 10
281.3340712442678
 20
111.489144924767
 30
0.0
 11
281.3340712442678
 21
111.489144924767
 31
0.0
  0
LINE
  5
4E1F
330
1B
100
AcDbEntity
 67
     1
  8
AM_7
100
AcDbLine
 10
281.3340712442678
 20
111.489144924767
 30
0.0
 11
281.3340712442678
 21
111.489144924767
 31
0.0
  0
LINE
  5
4E20
330
1B
100
AcDbEntity
 67
     1
  8
AM_7
100
AcDbLine
 10
271.8340712442678
 20
111.489144924767
 30
0.0
 11
281.3340712442678
 21
111.489144924767
 31
0.0
  0
LINE
  5
4E21
330
1B
100
AcDbEntity
 67
     1
  8
AM_7
100
AcDbLine
 10
281.3340712442678
 20
111.489144924767
 30
0.0
 11
290.8340712442678
 21
111.489144924767
 31
0.0
  0
LINE
  5
4E22
330
1B
100
AcDbEntity
 67
     1
  8
AM_7
100
AcDbLine
 10
281.3340712442678
 20
101.989144924767
 30
0.0
 11
281.3340712442678
 21
111.489144924767
 31
0.0
  0
LINE
  5
4E23
330
1B
100
AcDbEntity
 67
     1
  8
AM_7
100
AcDbLine
 10
281.3340712442678
 20
111.489144924767
 30
0.0
 11
281.3340712442678
 21
120.989144924767
 31
0.0
  0
LINE
  5
4E26
330
1B
100
AcDbEntity
 67
     1
  8
AM_7
100
AcDbLine
 10
247.7706977803928
 20
157.1661075873882
 30
0.0
 11
247.7706977803928
 21
157.1661075873882
 31
0.0
  0
LINE
  5
4E27
330
1B
100
AcDbEntity
 67
     1
  8
AM_7
100
AcDbLine
 10
247.7706977803928
 20
157.1661075873882
 30
0.0
 11
247.7706977803928
 21
157.1661075873882
 31
0.0
  0
LINE
  5
4E28
330
1B
100
AcDbEntity
 67
     1
  8
AM_7
100
AcDbLine
 10
234.7750010503928
 20
157.1661075873882
 30
0.0
 11
247.7706977803928
 21
157.1661075873882
 31
0.0
  0
LINE
  5
4E29
330
1B
100
AcDbEntity
 67
     1
  8
AM_7
100
AcDbLine
 10
247.7706977803928
 20
157.1661075873882
 30
0.0
 11
260.7663945103928
 21
157.1661075873882
 31
0.0
  0
LINE
  5
4E2A
330
1B
100
AcDbEntity
 67
     1
  8
AM_7
100
AcDbLine
 10
247.7706977803928
 20
144.1704108573882
 30
0.0
 11
247.7706977803928
 21
157.1661075873882
 31
0.0
  0
LINE
  5
4E2B
330
1B
100
AcDbEntity
 67
     1
  8
AM_7
100
AcDbLine
 10
247.7706977803928
 20
157.1661075873882
 30
0.0
 11
247.7706977803928
 21
170.1618043173882
 31
0.0
  0
LINE
  5
4E2E
330
1B
100
AcDbEntity
 67
     1
  8
AM_7
100
AcDbLine
 10
265.0840712442678
 20
124.7118043173883
 30
0.0
 11
265.0840712442678
 21
124.7118043173883
 31
0.0
  0
LINE
  5
4E2F
330
1B
100
AcDbEntity
 67
     1
  8
AM_7
100
AcDbLine
 10
265.0840712442678
 20
124.7118043173883
 30
0.0
 11
265.0840712442678
 21
124.7118043173883
 31
0.0
  0
LINE
  5
4E30
330
1B
100
AcDbEntity
 67
     1
  8
AM_7
100
AcDbLine
 10
252.0883745142678
 20
124.7118043173883
 30
0.0
 11
265.0840712442678
 21
124.7118043173883
 31
0.0
  0
LINE
  5
4E31
330
1B
100
AcDbEntity
 67
     1
  8
AM_7
100
AcDbLine
 10
265.0840712442678
 20
124.7118043173883
 30
0.0
 11
278.0797679742678
 21
124.7118043173883
 31
0.0
  0
LINE
  5
4E32
330
1B
100
AcDbEntity
 67
     1
  8
AM_7
100
AcDbLine
 10
265.0840712442678
 20
111.7161075873883
 30
0.0
 11
265.0840712442678
 21
124.7118043173883
 31
0.0
  0
LINE
  5
4E33
330
1B
100
AcDbEntity
 67
     1
  8
AM_7
100
AcDbLine
 10
265.0840712442678
 20
124.7118043173883
 30
0.0
 11
265.0840712442678
 21
137.7075010473882
 31
0.0
  0
LINE
  5
4E36
330
1B
100
AcDbEntity
 67
     1
  8
AM_7
100
AcDbLine
 10
266.6840712442678
 20
144.8118043173883
 30
0.0
 11
266.6840712442678
 21
144.8118043173883
 31
0.0
  0
LINE
  5
4E37
330
1B
100
AcDbEntity
 67
     1
  8
AM_7
100
AcDbLine
 10
266.6840712442678
 20
144.8118043173883
 30
0.0
 11
266.6840712442678
 21
144.8118043173883
 31
0.0
  0
LINE
  5
4E38
330
1B
100
AcDbEntity
 67
     1
  8
AM_7
100
AcDbLine
 10
255.6840712442678
 20
144.8118043173883
 30
0.0
 11
266.6840712442678
 21
144.8118043173883
 31
0.0
  0
LINE
  5
4E39
330
1B
100
AcDbEntity
 67
     1
  8
AM_7
100
AcDbLine
 10
266.6840712442678
 20
144.8118043173883
 30
0.0
 11
277.6840712442678
 21
144.8118043173883
 31
0.0
  0
LINE
  5
4E3A
330
1B
100
AcDbEntity
 67
     1
  8
AM_7
100
AcDbLine
 10
266.6840712442678
 20
133.8118043173883
 30
0.0
 11
266.6840712442678
 21
144.8118043173883
 31
0.0
  0
LINE
  5
4E3B
330
1B
100
AcDbEntity
 67
     1
  8
AM_7
100
AcDbLine
 10
266.6840712442678
 20
144.8118043173883
 30
0.0
 11
266.6840712442678
 21
155.8118043173883
 31
0.0
  0
LINE
  5
4E3E
330
1B
100
AcDbEntity
 67
     1
  8
AM_7
100
AcDbLine
 10
237.3589889100578
 20
64.00440431738812
 30
0.0
 11
237.3589889100578
 21
64.00440431738812
 31
0.0
  0
LINE
  5
4E3F
330
1B
100
AcDbEntity
 67
     1
  8
AM_7
100
AcDbLine
 10
237.3589889100578
 20
64.00440431738812
 30
0.0
 11
237.3589889100578
 21
64.00440431738812
 31
0.0
  0
LINE
  5
4E40
330
1B
100
AcDbEntity
 67
     1
  8
AM_7
100
AcDbLine
 10
230.3589889100578
 20
64.00440431738812
 30
0.0
 11
237.3589889100578
 21
64.00440431738812
 31
0.0
  0
LINE
  5
4E41
330
1B
100
AcDbEntity
 67
     1
  8
AM_7
100
AcDbLine
 10
237.3589889100578
 20
64.00440431738812
 30
0.0
 11
244.3589889100578
 21
64.00440431738812
 31
0.0
  0
LINE
  5
4E42
330
1B
100
AcDbEntity
 67
     1
  8
AM_7
100
AcDbLine
 10
237.3589889100578
 20
57.00440431738812
 30
0.0
 11
237.3589889100578
 21
64.00440431738812
 31
0.0
  0
LINE
  5
4E43
330
1B
100
AcDbEntity
 67
     1
  8
AM_7
100
AcDbLine
 10
237.3589889100578
 20
64.00440431738812
 30
0.0
 11
237.3589889100578
 21
71.00440431738812
 31
0.0
  0
LINE
  5
4E46
330
1B
100
AcDbEntity
 67
     1
  8
AM_7
100
AcDbLine
 10
243.7923222433911
 20
67.12445595513739
 30
0.0
 11
243.7923222433911
 21
67.12445595513739
 31
0.0
  0
LINE
  5
4E47
330
1B
100
AcDbEntity
 67
     1
  8
AM_7
100
AcDbLine
 10
243.7923222433911
 20
67.12445595513739
 30
0.0
 11
243.7923222433911
 21
67.12445595513739
 31
0.0
  0
LINE
  5
4E48
330
1B
100
AcDbEntity
 67
     1
  8
AM_7
100
AcDbLine
 10
237.6423222433911
 20
67.12445595513739
 30
0.0
 11
243.7923222433911
 21
67.12445595513739
 31
0.0
  0
LINE
  5
4E49
330
1B
100
AcDbEntity
 67
     1
  8
AM_7
100
AcDbLine
 10
243.7923222433911
 20
67.12445595513739
 30
0.0
 11
249.9423222433911
 21
67.12445595513739
 31
0.0
  0
LINE
  5
4E4A
330
1B
100
AcDbEntity
 67
     1
  8
AM_7
100
AcDbLine
 10
243.7923222433911
 20
60.9744559551374
 30
0.0
 11
243.7923222433911
 21
67.12445595513739
 31
0.0
  0
LINE
  5
4E4B
330
1B
100
AcDbEntity
 67
     1
  8
AM_7
100
AcDbLine
 10
243.7923222433911
 20
67.12445595513739
 30
0.0
 11
243.7923222433911
 21
73.2744559551374
 31
0.0
  0
LINE
  5
4E4E
330
1B
100
AcDbEntity
 67
     1
  8
AM_7
100
AcDbLine
 10
237.3589889100578
 20
90.00440431738812
 30
0.0
 11
237.3589889100578
 21
90.00440431738812
 31
0.0
  0
LINE
  5
4E4F
330
1B
100
AcDbEntity
 67
     1
  8
AM_7
100
AcDbLine
 10
237.3589889100578
 20
90.00440431738812
 30
0.0
 11
237.3589889100578
 21
90.00440431738812
 31
0.0
  0
LINE
  5
4E50
330
1B
100
AcDbEntity
 67
     1
  8
AM_7
100
AcDbLine
 10
228.3589889100578
 20
90.00440431738812
 30
0.0
 11
237.3589889100578
 21
90.00440431738812
 31
0.0
  0
LINE
  5
4E51
330
1B
100
AcDbEntity
 67
     1
  8
AM_7
100
AcDbLine
 10
237.3589889100578
 20
90.00440431738812
 30
0.0
 11
246.3589889100578
 21
90.00440431738812
 31
0.0
  0
LINE
  5
4E52
330
1B
100
AcDbEntity
 67
     1
  8
AM_7
100
AcDbLine
 10
237.3589889100578
 20
81.00440431738812
 30
0.0
 11
237.3589889100578
 21
90.00440431738812
 31
0.0
  0
LINE
  5
4E53
330
1B
100
AcDbEntity
 67
     1
  8
AM_7
100
AcDbLine
 10
237.3589889100578
 20
90.00440431738812
 30
0.0
 11
237.3589889100578
 21
99.00440431738813
 31
0.0
  0
LINE
  5
4E56
330
1B
100
AcDbEntity
 67
     1
  8
AM_7
100
AcDbLine
 10
224.3689889100578
 20
80.72440431738815
 30
0.0
 11
224.3689889100578
 21
80.72440431738815
 31
0.0
  0
LINE
  5
4E57
330
1B
100
AcDbEntity
 67
     1
  8
AM_7
100
AcDbLine
 10
224.3689889100578
 20
80.72440431738815
 30
0.0
 11
224.3689889100578
 21
80.72440431738815
 31
0.0
  0
LINE
  5
4E58
330
1B
100
AcDbEntity
 67
     1
  8
AM_7
100
AcDbLine
 10
218.2189889100578
 20
80.72440431738815
 30
0.0
 11
224.3689889100578
 21
80.72440431738815
 31
0.0
  0
LINE
  5
4E59
330
1B
100
AcDbEntity
 67
     1
  8
AM_7
100
AcDbLine
 10
224.3689889100578
 20
80.72440431738815
 30
0.0
 11
230.5189889100578
 21
80.72440431738815
 31
0.0
  0
LINE
  5
4E5A
330
1B
100
AcDbEntity
 67
     1
  8
AM_7
100
AcDbLine
 10
224.3689889100578
 20
74.57440431738814
 30
0.0
 11
224.3689889100578
 21
80.72440431738815
 31
0.0
  0
LINE
  5
4E5B
330
1B
100
AcDbEntity
 67
     1
  8
AM_7
100
AcDbLine
 10
224.3689889100578
 20
80.72440431738815
 30
0.0
 11
224.3689889100578
 21
86.87440431738815
 31
0.0
  0
LINE
  5
4E5E
330
1B
100
AcDbEntity
 67
     1
  8
AM_7
100
AcDbLine
 10
217.0943755182686
 20
80.7244043173881
 30
0.0
 11
217.0943755182686
 21
80.7244043173881
 31
0.0
  0
LINE
  5
4E5F
330
1B
100
AcDbEntity
 67
     1
  8
AM_7
100
AcDbLine
 10
217.0943755182686
 20
80.7244043173881
 30
0.0
 11
217.0943755182686
 21
80.7244043173881
 31
0.0
  0
LINE
  5
4E60
330
1B
100
AcDbEntity
 67
     1
  8
AM_7
100
AcDbLine
 10
210.9443755182685
 20
80.7244043173881
 30
0.0
 11
217.0943755182686
 21
80.7244043173881
 31
0.0
  0
LINE
  5
4E61
330
1B
100
AcDbEntity
 67
     1
  8
AM_7
100
AcDbLine
 10
217.0943755182686
 20
80.7244043173881
 30
0.0
 11
223.2443755182685
 21
80.7244043173881
 31
0.0
  0
LINE
  5
4E62
330
1B
100
AcDbEntity
 67
     1
  8
AM_7
100
AcDbLine
 10
217.0943755182686
 20
74.57440431738809
 30
0.0
 11
217.0943755182686
 21
80.7244043173881
 31
0.0
  0
LINE
  5
4E63
330
1B
100
AcDbEntity
 67
     1
  8
AM_7
100
AcDbLine
 10
217.0943755182686
 20
80.7244043173881
 30
0.0
 11
217.0943755182686
 21
86.8744043173881
 31
0.0
  0
LINE
  5
4E66
330
1B
100
AcDbEntity
 67
     1
  8
AM_7
100
AcDbLine
 10
233.9344740446718
 20
80.14683906477134
 30
0.0
 11
233.9344740446718
 21
80.14683906477134
 31
0.0
  0
LINE
  5
4E67
330
1B
100
AcDbEntity
 67
     1
  8
AM_7
100
AcDbLine
 10
233.9344740446718
 20
80.14683906477134
 30
0.0
 11
233.9344740446718
 21
80.14683906477134
 31
0.0
  0
LINE
  5
4E68
330
1B
100
AcDbEntity
 67
     1
  8
AM_7
100
AcDbLine
 10
210.9344740446718
 20
80.14683906477134
 30
0.0
 11
233.9344740446718
 21
80.14683906477134
 31
0.0
  0
LINE
  5
4E69
330
1B
100
AcDbEntity
 67
     1
  8
AM_7
100
AcDbLine
 10
233.9344740446718
 20
80.14683906477134
 30
0.0
 11
256.9344740446718
 21
80.14683906477134
 31
0.0
  0
LINE
  5
4E6A
330
1B
100
AcDbEntity
 67
     1
  8
AM_7
100
AcDbLine
 10
233.9344740446718
 20
57.14683906477134
 30
0.0
 11
233.9344740446718
 21
80.14683906477134
 31
0.0
  0
LINE
  5
4E6B
330
1B
100
AcDbEntity
 67
     1
  8
AM_7
100
AcDbLine
 10
233.9344740446718
 20
80.14683906477134
 30
0.0
 11
233.9344740446718
 21
103.1468390647713
 31
0.0
  0
LINE
  5
4E6E
330
1B
100
AcDbEntity
 67
     1
  8
AM_7
100
AcDbLine
 10
229.1028800606462
 20
64.00440431738812
 30
0.0
 11
229.1028800606462
 21
64.00440431738812
 31
0.0
  0
LINE
  5
4E6F
330
1B
100
AcDbEntity
 67
     1
  8
AM_7
100
AcDbLine
 10
229.1028800606462
 20
64.00440431738812
 30
0.0
 11
229.1028800606462
 21
64.00440431738812
 31
0.0
  0
LINE
  5
4E70
330
1B
100
AcDbEntity
 67
     1
  8
AM_7
100
AcDbLine
 10
222.9528800606462
 20
64.00440431738812
 30
0.0
 11
229.1028800606462
 21
64.00440431738812
 31
0.0
  0
LINE
  5
4E71
330
1B
100
AcDbEntity
 67
     1
  8
AM_7
100
AcDbLine
 10
229.1028800606462
 20
64.00440431738812
 30
0.0
 11
235.2528800606462
 21
64.00440431738812
 31
0.0
  0
LINE
  5
4E72
330
1B
100
AcDbEntity
 67
     1
  8
AM_7
100
AcDbLine
 10
229.1028800606462
 20
57.85440431738813
 30
0.0
 11
229.1028800606462
 21
64.00440431738812
 31
0.0
  0
LINE
  5
4E73
330
1B
100
AcDbEntity
 67
     1
  8
AM_7
100
AcDbLine
 10
229.1028800606462
 20
64.00440431738812
 30
0.0
 11
229.1028800606462
 21
70.15440431738813
 31
0.0
  0
LINE
  5
4E76
330
1B
100
AcDbEntity
 67
     1
  8
AM_7
100
AcDbLine
 10
245.3500222039696
 20
133.5467898595506
 30
0.0
 11
248.0843675780821
 21
157.3425736109343
 31
0.0
  0
LINE
  5
4E79
330
1B
100
AcDbEntity
 67
     1
  8
AM_7
 60
     1
100
AcDbLine
 10
326.6165144662267
 20
152.7733930981469
 30
0.0
 11
326.6165144662267
 21
152.7733930981469
 31
0.0
  0
LINE
  5
4E7A
330
1B
100
AcDbEntity
 67
     1
  8
AM_7
 60
     1
100
AcDbLine
 10
326.6165144662267
 20
152.7733930981469
 30
0.0
 11
326.6165144662267
 21
152.7733930981469
 31
0.0
  0
LINE
  5
4E7B
330
1B
100
AcDbEntity
 67
     1
  8
AM_7
 60
     1
100
AcDbLine
 10
319.6165144662267
 20
152.7733930981469
 30
0.0
 11
326.6165144662267
 21
152.7733930981469
 31
0.0
  0
LINE
  5
4E7C
330
1B
100
AcDbEntity
 67
     1
  8
AM_7
 60
     1
100
AcDbLine
 10
326.6165144662267
 20
152.7733930981469
 30
0.0
 11
333.6165144662267
 21
152.7733930981469
 31
0.0
  0
LINE
  5
4E7D
330
1B
100
AcDbEntity
 67
     1
  8
AM_7
 60
     1
100
AcDbLine
 10
326.6165144662267
 20
145.7733930981468
 30
0.0
 11
326.6165144662267
 21
152.7733930981469
 31
0.0
  0
LINE
  5
4E7E
330
1B
100
AcDbEntity
 67
     1
  8
AM_7
 60
     1
100
AcDbLine
 10
326.6165144662267
 20
152.7733930981469
 30
0.0
 11
326.6165144662267
 21
159.7733930981469
 31
0.0
  0
LINE
  5
4E81
330
1B
100
AcDbEntity
 67
     1
  8
AM_7
100
AcDbLine
 10
333.0972551646345
 20
158.2733930981468
 30
0.0
 11
333.0972551646345
 21
158.2733930981468
 31
0.0
  0
LINE
  5
4E82
330
1B
100
AcDbEntity
 67
     1
  8
AM_7
100
AcDbLine
 10
333.0972551646345
 20
158.2733930981468
 30
0.0
 11
333.0972551646345
 21
158.2733930981468
 31
0.0
  0
LINE
  5
4E83
330
1B
100
AcDbEntity
 67
     1
  8
AM_7
100
AcDbLine
 10
325.5972551646345
 20
158.2733930981468
 30
0.0
 11
333.0972551646345
 21
158.2733930981468
 31
0.0
  0
LINE
  5
4E84
330
1B
100
AcDbEntity
 67
     1
  8
AM_7
100
AcDbLine
 10
333.0972551646345
 20
158.2733930981468
 30
0.0
 11
340.5972551646346
 21
158.2733930981468
 31
0.0
  0
LINE
  5
4E85
330
1B
100
AcDbEntity
 67
     1
  8
AM_7
100
AcDbLine
 10
333.0972551646345
 20
150.7733930981468
 30
0.0
 11
333.0972551646345
 21
158.2733930981468
 31
0.0
  0
LINE
  5
4E86
330
1B
100
AcDbEntity
 67
     1
  8
AM_7
100
AcDbLine
 10
333.0972551646345
 20
158.2733930981468
 30
0.0
 11
333.0972551646345
 21
165.7733930981468
 31
0.0
  0
LINE
  5
4E89
330
1B
100
AcDbEntity
 67
     1
  8
AM_7
100
AcDbLine
 10
329.5972551646345
 20
161.7733930981469
 30
0.0
 11
329.5972551646345
 21
161.7733930981469
 31
0.0
  0
LINE
  5
4E8A
330
1B
100
AcDbEntity
 67
     1
  8
AM_7
100
AcDbLine
 10
329.5972551646345
 20
161.7733930981469
 30
0.0
 11
329.5972551646345
 21
161.7733930981469
 31
0.0
  0
LINE
  5
4E8B
330
1B
100
AcDbEntity
 67
     1
  8
AM_7
100
AcDbLine
 10
318.5972551646345
 20
161.7733930981469
 30
0.0
 11
329.5972551646345
 21
161.7733930981469
 31
0.0
  0
LINE
  5
4E8C
330
1B
100
AcDbEntity
 67
     1
  8
AM_7
100
AcDbLine
 10
329.5972551646345
 20
161.7733930981469
 30
0.0
 11
340.5972551646346
 21
161.7733930981469
 31
0.0
  0
LINE
  5
4E8D
330
1B
100
AcDbEntity
 67
     1
  8
AM_7
100
AcDbLine
 10
329.5972551646345
 20
150.7733930981468
 30
0.0
 11
329.5972551646345
 21
161.7733930981469
 31
0.0
  0
LINE
  5
4E8E
330
1B
100
AcDbEntity
 67
     1
  8
AM_7
100
AcDbLine
 10
329.5972551646345
 20
161.7733930981469
 30
0.0
 11
329.5972551646345
 21
172.7733930981468
 31
0.0
  0
LINE
  5
4E91
330
1B
100
AcDbEntity
 67
     1
  8
AM_7
 60
     1
100
AcDbLine
 10
245.7829923947596
 20
137.3147356092899
 30
0.0
 11
246.4915983888193
 21
143.4814163655742
 31
0.0
  0
LINE
  5
4E94
330
1B
100
AcDbEntity
 67
     1
  8
AM_7
 60
     1
100
AcDbLine
 10
245.3500222039748
 20
133.5467898595501
 30
0.0
 11
246.0586281980346
 21
139.7134706158343
 31
0.0
  0
LINE
  5
4E97
330
1B
100
AcDbEntity
 67
     1
  8
AM_7
100
AcDbLine
 10
246.8340712442677
 20
146.4618043173883
 30
0.0
 11
246.8340712442677
 21
146.4618043173883
 31
0.0
  0
LINE
  5
4E98
330
1B
100
AcDbEntity
 67
     1
  8
AM_7
100
AcDbLine
 10
246.8340712442677
 20
146.4618043173883
 30
0.0
 11
246.8340712442677
 21
146.4618043173883
 31
0.0
  0
LINE
  5
4E99
330
1B
100
AcDbEntity
 67
     1
  8
AM_7
100
AcDbLine
 10
236.6590712442677
 20
146.4618043173883
 30
0.0
 11
246.8340712442677
 21
146.4618043173883
 31
0.0
  0
LINE
  5
4E9A
330
1B
100
AcDbEntity
 67
     1
  8
AM_7
100
AcDbLine
 10
246.8340712442677
 20
146.4618043173883
 30
0.0
 11
257.0090712442677
 21
146.4618043173883
 31
0.0
  0
LINE
  5
4E9B
330
1B
100
AcDbEntity
 67
     1
  8
AM_7
100
AcDbLine
 10
246.8340712442677
 20
136.2868043173882
 30
0.0
 11
246.8340712442677
 21
146.4618043173883
 31
0.0
  0
LINE
  5
4E9C
330
1B
100
AcDbEntity
 67
     1
  8
AM_7
100
AcDbLine
 10
246.8340712442677
 20
146.4618043173883
 30
0.0
 11
246.8340712442677
 21
156.6368043173883
 31
0.0
  0
VIEWPORT
  5
4EFE
330
1B
100
AcDbEntity
 67
     1
  8
AM_VIEWS
100
AcDbViewport
 10
275.7658646046531
 20
235.5370913254594
 30
0.0
 40
136.429059231959
 41
52.10221616210282
 68
     3
 69
     3
 12
0.0
 22
0.0
 13
0.0
 23
0.0
 14
10.0
 24
10.0
 15
10.0
 25
10.0
 16
0.0
 26
1.0
 36
0.0
 17
419.3063758039845
 27
231.4187207113972
 37
-11.74850367320518
 42
50.0
 43
0.0
 44
0.0
 45
52.10221616210282
 50
0.0
 51
180.0
 72
   100
341
10
341
10A
341
342
341
343
341
3F8
341
46A
341
4D19
341
4D1F
341
4E04
341
4EA1
 90
    49152
  1

281
     0
 71
     1
 74
     1
110
0.0
120
0.0
130
0.0
111
1.0
121
0.0
131
0.0
112
0.0
122
1.0
132
0.0
 79
     0
146
0.0
  0
LINE
  5
51FA
330
1B
100
AcDbEntity
 67
     1
  8
AM_7
100
AcDbLine
 10
245.0840712442679
 20
246.0370913254594
 30
0.0
 11
245.0840712442679
 21
226.5798553551459
 31
0.0
  0
LINE
  5
5200
330
1B
100
AcDbEntity
 67
     1
  8
AM_7
100
AcDbLine
 10
279.8340712442679
 20
219.536083979049
 30
0.0
 11
279.8340712442679
 21
219.536083979049
 31
0.0
  0
LINE
  5
5201
330
1B
100
AcDbEntity
 67
     1
  8
AM_7
100
AcDbLine
 10
279.8340712442679
 20
219.536083979049
 30
0.0
 11
279.8340712442679
 21
219.536083979049
 31
0.0
  0
LINE
  5
5202
330
1B
100
AcDbEntity
 67
     1
  8
AM_7
100
AcDbLine
 10
273.5840712442679
 20
219.536083979049
 30
0.0
 11
279.8340712442679
 21
219.536083979049
 31
0.0
  0
LINE
  5
5203
330
1B
100
AcDbEntity
 67
     1
  8
AM_7
100
AcDbLine
 10
279.8340712442679
 20
219.536083979049
 30
0.0
 11
286.0840712442679
 21
219.536083979049
 31
0.0
  0
LINE
  5
5204
330
1B
100
AcDbEntity
 67
     1
  8
AM_7
100
AcDbLine
 10
279.8340712442679
 20
213.286083979049
 30
0.0
 11
279.8340712442679
 21
219.536083979049
 31
0.0
  0
LINE
  5
5205
330
1B
100
AcDbEntity
 67
     1
  8
AM_7
100
AcDbLine
 10
279.8340712442679
 20
219.536083979049
 30
0.0
 11
279.8340712442679
 21
225.786083979049
 31
0.0
  0
LINE
  5
5208
330
1B
100
AcDbEntity
 67
     1
  8
AM_7
100
AcDbLine
 10
279.8340712442679
 20
223.036083979049
 30
0.0
 11
279.8340712442679
 21
223.036083979049
 31
0.0
  0
LINE
  5
5209
330
1B
100
AcDbEntity
 67
     1
  8
AM_7
100
AcDbLine
 10
279.8340712442679
 20
223.036083979049
 30
0.0
 11
279.8340712442679
 21
223.036083979049
 31
0.0
  0
LINE
  5
520A
330
1B
100
AcDbEntity
 67
     1
  8
AM_7
100
AcDbLine
 10
273.5840712442679
 20
223.036083979049
 30
0.0
 11
279.8340712442679
 21
223.036083979049
 31
0.0
  0
LINE
  5
520B
330
1B
100
AcDbEntity
 67
     1
  8
AM_7
100
AcDbLine
 10
279.8340712442679
 20
223.036083979049
 30
0.0
 11
286.0840712442679
 21
223.036083979049
 31
0.0
  0
LINE
  5
520C
330
1B
100
AcDbEntity
 67
     1
  8
AM_7
100
AcDbLine
 10
279.8340712442679
 20
216.786083979049
 30
0.0
 11
279.8340712442679
 21
223.036083979049
 31
0.0
  0
LINE
  5
520D
330
1B
100
AcDbEntity
 67
     1
  8
AM_7
100
AcDbLine
 10
279.8340712442679
 20
223.036083979049
 30
0.0
 11
279.8340712442679
 21
229.286083979049
 31
0.0
  0
LINE
  5
5210
330
1B
100
AcDbEntity
 67
     1
  8
AM_7
100
AcDbLine
 10
260.8340712442679
 20
219.5360839790492
 30
0.0
 11
260.8340712442679
 21
219.5360839790492
 31
0.0
  0
LINE
  5
5211
330
1B
100
AcDbEntity
 67
     1
  8
AM_7
100
AcDbLine
 10
260.8340712442679
 20
219.5360839790492
 30
0.0
 11
260.8340712442679
 21
219.5360839790492
 31
0.0
  0
LINE
  5
5212
330
1B
100
AcDbEntity
 67
     1
  8
AM_7
100
AcDbLine
 10
254.5840712442679
 20
219.5360839790492
 30
0.0
 11
260.8340712442679
 21
219.5360839790492
 31
0.0
  0
LINE
  5
5213
330
1B
100
AcDbEntity
 67
     1
  8
AM_7
100
AcDbLine
 10
260.8340712442679
 20
219.5360839790492
 30
0.0
 11
267.0840712442679
 21
219.5360839790492
 31
0.0
  0
LINE
  5
5214
330
1B
100
AcDbEntity
 67
     1
  8
AM_7
100
AcDbLine
 10
260.8340712442679
 20
213.2860839790492
 30
0.0
 11
260.8340712442679
 21
219.5360839790492
 31
0.0
  0
LINE
  5
5215
330
1B
100
AcDbEntity
 67
     1
  8
AM_7
100
AcDbLine
 10
260.8340712442679
 20
219.5360839790492
 30
0.0
 11
260.8340712442679
 21
225.7860839790492
 31
0.0
  0
LINE
  5
5218
330
1B
100
AcDbEntity
 67
     1
  8
AM_7
100
AcDbLine
 10
260.8340712442679
 20
223.0360839790491
 30
0.0
 11
260.8340712442679
 21
223.0360839790491
 31
0.0
  0
LINE
  5
5219
330
1B
100
AcDbEntity
 67
     1
  8
AM_7
100
AcDbLine
 10
260.8340712442679
 20
223.0360839790491
 30
0.0
 11
260.8340712442679
 21
223.0360839790491
 31
0.0
  0
LINE
  5
521A
330
1B
100
AcDbEntity
 67
     1
  8
AM_7
100
AcDbLine
 10
254.5840712442679
 20
223.0360839790491
 30
0.0
 11
260.8340712442679
 21
223.0360839790491
 31
0.0
  0
LINE
  5
521B
330
1B
100
AcDbEntity
 67
     1
  8
AM_7
100
AcDbLine
 10
260.8340712442679
 20
223.0360839790491
 30
0.0
 11
267.0840712442679
 21
223.0360839790491
 31
0.0
  0
LINE
  5
521C
330
1B
100
AcDbEntity
 67
     1
  8
AM_7
100
AcDbLine
 10
260.8340712442679
 20
216.7860839790491
 30
0.0
 11
260.8340712442679
 21
223.0360839790491
 31
0.0
  0
LINE
  5
521D
330
1B
100
AcDbEntity
 67
     1
  8
AM_7
100
AcDbLine
 10
260.8340712442679
 20
223.0360839790491
 30
0.0
 11
260.8340712442679
 21
229.2860839790491
 31
0.0
  0
LINE
  5
5228
330
1B
100
AcDbEntity
 67
     1
  8
AM_7
100
AcDbLine
 10
259.3340712442679
 20
218.536083979049
 30
0.0
 11
259.3340712442679
 21
218.536083979049
 31
0.0
  0
LINE
  5
5229
330
1B
100
AcDbEntity
 67
     1
  8
AM_7
100
AcDbLine
 10
259.3340712442679
 20
218.536083979049
 30
0.0
 11
259.3340712442679
 21
218.536083979049
 31
0.0
  0
LINE
  5
522A
330
1B
100
AcDbEntity
 67
     1
  8
AM_7
100
AcDbLine
 10
249.8340712442679
 20
218.536083979049
 30
0.0
 11
259.3340712442679
 21
218.536083979049
 31
0.0
  0
LINE
  5
522B
330
1B
100
AcDbEntity
 67
     1
  8
AM_7
100
AcDbLine
 10
259.3340712442679
 20
218.536083979049
 30
0.0
 11
268.8340712442679
 21
218.536083979049
 31
0.0
  0
LINE
  5
522C
330
1B
100
AcDbEntity
 67
     1
  8
AM_7
100
AcDbLine
 10
259.3340712442679
 20
209.036083979049
 30
0.0
 11
259.3340712442679
 21
218.536083979049
 31
0.0
  0
LINE
  5
522D
330
1B
100
AcDbEntity
 67
     1
  8
AM_7
100
AcDbLine
 10
259.3340712442679
 20
218.536083979049
 30
0.0
 11
259.3340712442679
 21
228.036083979049
 31
0.0
  0
LINE
  5
5230
330
1B
100
AcDbEntity
 67
     1
  8
AM_7
100
AcDbLine
 10
281.3340712442679
 20
218.536083979049
 30
0.0
 11
281.3340712442679
 21
218.536083979049
 31
0.0
  0
LINE
  5
5231
330
1B
100
AcDbEntity
 67
     1
  8
AM_7
100
AcDbLine
 10
281.3340712442679
 20
218.536083979049
 30
0.0
 11
281.3340712442679
 21
218.536083979049
 31
0.0
  0
LINE
  5
5232
330
1B
100
AcDbEntity
 67
     1
  8
AM_7
100
AcDbLine
 10
271.8340712442679
 20
218.536083979049
 30
0.0
 11
281.3340712442679
 21
218.536083979049
 31
0.0
  0
LINE
  5
5233
330
1B
100
AcDbEntity
 67
     1
  8
AM_7
100
AcDbLine
 10
281.3340712442679
 20
218.536083979049
 30
0.0
 11
290.8340712442679
 21
218.536083979049
 31
0.0
  0
LINE
  5
5234
330
1B
100
AcDbEntity
 67
     1
  8
AM_7
100
AcDbLine
 10
281.3340712442679
 20
209.036083979049
 30
0.0
 11
281.3340712442679
 21
218.536083979049
 31
0.0
  0
LINE
  5
5235
330
1B
100
AcDbEntity
 67
     1
  8
AM_7
100
AcDbLine
 10
281.3340712442679
 20
218.536083979049
 30
0.0
 11
281.3340712442679
 21
228.036083979049
 31
0.0
  0
LINE
  5
523E
330
1B
100
AcDbEntity
 67
     1
  8
AM_7
100
AcDbLine
 10
279.8340712442679
 20
251.5380986718697
 30
0.0
 11
279.8340712442679
 21
251.5380986718697
 31
0.0
  0
LINE
  5
523F
330
1B
100
AcDbEntity
 67
     1
  8
AM_7
100
AcDbLine
 10
279.8340712442679
 20
251.5380986718697
 30
0.0
 11
279.8340712442679
 21
251.5380986718697
 31
0.0
  0
LINE
  5
5240
330
1B
100
AcDbEntity
 67
     1
  8
AM_7
100
AcDbLine
 10
273.5840712442679
 20
251.5380986718697
 30
0.0
 11
279.8340712442679
 21
251.5380986718697
 31
0.0
  0
LINE
  5
5241
330
1B
100
AcDbEntity
 67
     1
  8
AM_7
100
AcDbLine
 10
279.8340712442679
 20
251.5380986718697
 30
0.0
 11
286.0840712442679
 21
251.5380986718697
 31
0.0
  0
LINE
  5
5242
330
1B
100
AcDbEntity
 67
     1
  8
AM_7
100
AcDbLine
 10
279.8340712442679
 20
245.2880986718697
 30
0.0
 11
279.8340712442679
 21
251.5380986718697
 31
0.0
  0
LINE
  5
5243
330
1B
100
AcDbEntity
 67
     1
  8
AM_7
100
AcDbLine
 10
279.8340712442679
 20
251.5380986718697
 30
0.0
 11
279.8340712442679
 21
257.7880986718697
 31
0.0
  0
LINE
  5
5246
330
1B
100
AcDbEntity
 67
     1
  8
AM_7
100
AcDbLine
 10
279.8340712442679
 20
248.0380986718697
 30
0.0
 11
279.8340712442679
 21
248.0380986718697
 31
0.0
  0
LINE
  5
5247
330
1B
100
AcDbEntity
 67
     1
  8
AM_7
100
AcDbLine
 10
279.8340712442679
 20
248.0380986718697
 30
0.0
 11
279.8340712442679
 21
248.0380986718697
 31
0.0
  0
LINE
  5
5248
330
1B
100
AcDbEntity
 67
     1
  8
AM_7
100
AcDbLine
 10
273.5840712442679
 20
248.0380986718697
 30
0.0
 11
279.8340712442679
 21
248.0380986718697
 31
0.0
  0
LINE
  5
5249
330
1B
100
AcDbEntity
 67
     1
  8
AM_7
100
AcDbLine
 10
279.8340712442679
 20
248.0380986718697
 30
0.0
 11
286.0840712442679
 21
248.0380986718697
 31
0.0
  0
LINE
  5
524A
330
1B
100
AcDbEntity
 67
     1
  8
AM_7
100
AcDbLine
 10
279.8340712442679
 20
241.7880986718697
 30
0.0
 11
279.8340712442679
 21
248.0380986718697
 31
0.0
  0
LINE
  5
524B
330
1B
100
AcDbEntity
 67
     1
  8
AM_7
100
AcDbLine
 10
279.8340712442679
 20
248.0380986718697
 30
0.0
 11
279.8340712442679
 21
254.2880986718697
 31
0.0
  0
LINE
  5
524E
330
1B
100
AcDbEntity
 67
     1
  8
AM_7
100
AcDbLine
 10
260.8340712442679
 20
251.5380986718696
 30
0.0
 11
260.8340712442679
 21
251.5380986718696
 31
0.0
  0
LINE
  5
524F
330
1B
100
AcDbEntity
 67
     1
  8
AM_7
100
AcDbLine
 10
260.8340712442679
 20
251.5380986718696
 30
0.0
 11
260.8340712442679
 21
251.5380986718696
 31
0.0
  0
LINE
  5
5250
330
1B
100
AcDbEntity
 67
     1
  8
AM_7
100
AcDbLine
 10
254.5840712442679
 20
251.5380986718696
 30
0.0
 11
260.8340712442679
 21
251.5380986718696
 31
0.0
  0
LINE
  5
5251
330
1B
100
AcDbEntity
 67
     1
  8
AM_7
100
AcDbLine
 10
260.8340712442679
 20
251.5380986718696
 30
0.0
 11
267.0840712442679
 21
251.5380986718696
 31
0.0
  0
LINE
  5
5252
330
1B
100
AcDbEntity
 67
     1
  8
AM_7
100
AcDbLine
 10
260.8340712442679
 20
245.2880986718696
 30
0.0
 11
260.8340712442679
 21
251.5380986718696
 31
0.0
  0
LINE
  5
5253
330
1B
100
AcDbEntity
 67
     1
  8
AM_7
100
AcDbLine
 10
260.8340712442679
 20
251.5380986718696
 30
0.0
 11
260.8340712442679
 21
257.7880986718696
 31
0.0
  0
LINE
  5
5256
330
1B
100
AcDbEntity
 67
     1
  8
AM_7
100
AcDbLine
 10
260.8340712442679
 20
248.0380986718696
 30
0.0
 11
260.8340712442679
 21
248.0380986718696
 31
0.0
  0
LINE
  5
5257
330
1B
100
AcDbEntity
 67
     1
  8
AM_7
100
AcDbLine
 10
260.8340712442679
 20
248.0380986718696
 30
0.0
 11
260.8340712442679
 21
248.0380986718696
 31
0.0
  0
LINE
  5
5258
330
1B
100
AcDbEntity
 67
     1
  8
AM_7
100
AcDbLine
 10
254.5840712442679
 20
248.0380986718696
 30
0.0
 11
260.8340712442679
 21
248.0380986718696
 31
0.0
  0
LINE
  5
5259
330
1B
100
AcDbEntity
 67
     1
  8
AM_7
100
AcDbLine
 10
260.8340712442679
 20
248.0380986718696
 30
0.0
 11
267.0840712442679
 21
248.0380986718696
 31
0.0
  0
LINE
  5
525A
330
1B
100
AcDbEntity
 67
     1
  8
AM_7
100
AcDbLine
 10
260.8340712442679
 20
241.7880986718696
 30
0.0
 11
260.8340712442679
 21
248.0380986718696
 31
0.0
  0
LINE
  5
525B
330
1B
100
AcDbEntity
 67
     1
  8
AM_7
100
AcDbLine
 10
260.8340712442679
 20
248.0380986718696
 30
0.0
 11
260.8340712442679
 21
254.2880986718696
 31
0.0
  0
LINE
  5
525E
330
1B
100
AcDbEntity
 67
     1
  8
AM_7
100
AcDbLine
 10
281.3340712442679
 20
252.5380986718697
 30
0.0
 11
281.3340712442679
 21
252.5380986718697
 31
0.0
  0
LINE
  5
525F
330
1B
100
AcDbEntity
 67
     1
  8
AM_7
100
AcDbLine
 10
281.3340712442679
 20
252.5380986718697
 30
0.0
 11
281.3340712442679
 21
252.5380986718697
 31
0.0
  0
LINE
  5
5260
330
1B
100
AcDbEntity
 67
     1
  8
AM_7
100
AcDbLine
 10
271.8340712442679
 20
252.5380986718697
 30
0.0
 11
281.3340712442679
 21
252.5380986718697
 31
0.0
  0
LINE
  5
5261
330
1B
100
AcDbEntity
 67
     1
  8
AM_7
100
AcDbLine
 10
281.3340712442679
 20
252.5380986718697
 30
0.0
 11
290.8340712442679
 21
252.5380986718697
 31
0.0
  0
LINE
  5
5262
330
1B
100
AcDbEntity
 67
     1
  8
AM_7
100
AcDbLine
 10
281.3340712442679
 20
243.0380986718697
 30
0.0
 11
281.3340712442679
 21
252.5380986718697
 31
0.0
  0
LINE
  5
5263
330
1B
100
AcDbEntity
 67
     1
  8
AM_7
100
AcDbLine
 10
281.3340712442679
 20
252.5380986718697
 30
0.0
 11
281.3340712442679
 21
262.0380986718697
 31
0.0
  0
LINE
  5
5266
330
1B
100
AcDbEntity
 67
     1
  8
AM_7
100
AcDbLine
 10
259.3340712442679
 20
252.5380986718697
 30
0.0
 11
259.3340712442679
 21
252.5380986718697
 31
0.0
  0
LINE
  5
5267
330
1B
100
AcDbEntity
 67
     1
  8
AM_7
100
AcDbLine
 10
259.3340712442679
 20
252.5380986718697
 30
0.0
 11
259.3340712442679
 21
252.5380986718697
 31
0.0
  0
LINE
  5
5268
330
1B
100
AcDbEntity
 67
     1
  8
AM_7
100
AcDbLine
 10
249.8340712442679
 20
252.5380986718697
 30
0.0
 11
259.3340712442679
 21
252.5380986718697
 31
0.0
  0
LINE
  5
5269
330
1B
100
AcDbEntity
 67
     1
  8
AM_7
100
AcDbLine
 10
259.3340712442679
 20
252.5380986718697
 30
0.0
 11
268.8340712442679
 21
252.5380986718697
 31
0.0
  0
LINE
  5
526A
330
1B
100
AcDbEntity
 67
     1
  8
AM_7
100
AcDbLine
 10
259.3340712442679
 20
243.0380986718697
 30
0.0
 11
259.3340712442679
 21
252.5380986718697
 31
0.0
  0
LINE
  5
526B
330
1B
100
AcDbEntity
 67
     1
  8
AM_7
100
AcDbLine
 10
259.3340712442679
 20
252.5380986718697
 30
0.0
 11
259.3340712442679
 21
262.0380986718697
 31
0.0
  0
LINE
  5
5276
330
1B
100
AcDbEntity
 67
     1
  8
AM_7
100
AcDbLine
 10
247.7706977803928
 20
235.5798553551459
 30
0.0
 11
247.7706977803928
 21
226.5798553551459
 31
0.0
  0
LINE
  5
527C
330
1B
100
AcDbEntity
 67
     1
  8
AM_7
100
AcDbLine
 10
265.0840712442678
 20
235.5798553551459
 30
0.0
 11
265.0840712442678
 21
226.5798553551459
 31
0.0
  0
LINE
  5
527F
330
1B
100
AcDbEntity
 67
     1
  8
AM_7
100
AcDbLine
 10
266.6840712442678
 20
235.5798553551459
 30
0.0
 11
266.6840712442678
 21
226.5798553551459
 31
0.0
  0
LINE
  5
528B
330
1B
100
AcDbEntity
 67
     1
  8
AM_7
100
AcDbLine
 10
247.7706977803929
 20
244.5370913254595
 30
0.0
 11
247.7706977803929
 21
235.5370913254595
 31
0.0
  0
LINE
  5
528E
330
1B
100
AcDbEntity
 67
     1
  8
AM_7
100
AcDbLine
 10
265.0840712442679
 20
244.5370913254595
 30
0.0
 11
265.0840712442679
 21
235.5370913254595
 31
0.0
  0
LINE
  5
5291
330
1B
100
AcDbEntity
 67
     1
  8
AM_7
100
AcDbLine
 10
266.6840712442679
 20
244.5370913254595
 30
0.0
 11
266.6840712442679
 21
235.5370913254595
 31
0.0
  0
LINE
  5
5297
330
1B
100
AcDbEntity
 67
     1
  8
AM_7
100
AcDbLine
 10
233.9344740446718
 20
222.5370913254594
 30
0.0
 11
233.9344740446719
 21
249.5370913254594
 31
0.0
  0
LINE
  5
52A0
330
1B
100
AcDbEntity
 67
     1
  8
AM_7
100
AcDbLine
 10
217.0943755182686
 20
222.5370913254594
 30
0.0
 11
217.0943755182686
 21
249.5370913254594
 31
0.0
  0
LINE
  5
52A3
330
1B
100
AcDbEntity
 67
     1
  8
AM_7
100
AcDbLine
 10
224.3689889100578
 20
222.5370913254594
 30
0.0
 11
224.3689889100578
 21
249.5370913254594
 31
0.0
  0
LINE
  5
52F9
330
1B
100
AcDbEntity
 67
     1
  8
AM_7
100
AcDbLine
 10
237.3589889100578
 20
222.5370913254594
 30
0.0
 11
237.3589889100578
 21
249.5370913254594
 31
0.0
  0
LINE
  5
52FC
330
1B
100
AcDbEntity
 67
     1
  8
AM_7
100
AcDbLine
 10
246.8340712442677
 20
258.0370913254594
 30
0.0
 11
246.8340712442677
 21
213.0370913254594
 31
0.0
  0
LINE
  5
52FF
330
1B
100
AcDbEntity
 67
     1
  8
AM_7
100
AcDbLine
 10
329.5972551646345
 20
241.5584733403027
 30
0.0
 11
329.5972551646345
 21
229.5584733403027
 31
0.0
  0
VIEWPORT
  5
5307
330
1B
100
AcDbEntity
 67
     1
  8
AM_VIEWS
100
AcDbViewport
 10
115.856281413759
 20
117.1546561246173
 30
0.0
 40
52.10221616210282
 41
124.6408477518766
 68
     4
 69
     4
 12
0.0
 22
0.0
 13
0.0
 23
0.0
 14
10.0
 24
10.0
 15
10.0
 25
10.0
 16
-1.0
 26
0.0
 36
0.0
 17
419.3063758039845
 27
231.4187207113972
 37
-11.74850367320518
 42
50.0
 43
0.0
 44
0.0
 45
124.6408477518766
 50
0.0
 51
270.0
 72
   100
341
10
341
10A
341
342
341
343
341
3F8
341
46A
341
4D19
341
4D1F
341
4E04
341
4EA1
 90
    49152
  1

281
     0
 71
     1
 74
     1
110
0.0
120
0.0
130
0.0
111
1.0
121
0.0
131
0.0
112
0.0
122
1.0
132
0.0
 79
     0
146
0.0
  0
LINE
  5
5627
330
1B
100
AcDbEntity
 67
     1
  8
AM_7
100
AcDbLine
 10
132.8572887601693
 20
103.004404317388
 30
0.0
 11
132.8572887601693
 21
112.004404317388
 31
0.0
  0
LINE
  5
562D
330
1B
100
AcDbEntity
 67
     1
  8
AM_7
100
AcDbLine
 10
105.3562814137589
 20
126.4618043173879
 30
0.0
 11
126.7562814137589
 21
126.4618043173879
 31
0.0
  0
LINE
  5
5639
330
1B
100
AcDbEntity
 67
     1
  8
AM_7
100
AcDbLine
 10
129.8572887601693
 20
103.004404317388
 30
0.0
 11
129.8572887601693
 21
112.004404317388
 31
0.0
  0
LINE
  5
563F
330
1B
100
AcDbEntity
 67
     1
  8
AM_7
100
AcDbLine
 10
98.85527406734865
 20
112.004404317388
 30
0.0
 11
98.85527406734865
 21
103.004404317388
 31
0.0
  0
LINE
  5
5648
330
1B
100
AcDbEntity
 67
     1
  8
AM_7
100
AcDbLine
 10
101.8552740673486
 20
112.004404317388
 30
0.0
 11
101.8552740673486
 21
103.004404317388
 31
0.0
  0
LINE
  5
564B
330
1B
100
AcDbEntity
 67
     1
  8
AM_7
100
AcDbLine
 10
115.8135173840724
 20
157.1661075873882
 30
0.0
 11
124.8135173840724
 21
157.1661075873882
 31
0.0
  0
LINE
  5
564E
330
1B
100
AcDbEntity
 67
     1
  8
AM_7
100
AcDbLine
 10
115.8135173840724
 20
124.7118043173883
 30
0.0
 11
124.8135173840724
 21
124.7118043173883
 31
0.0
  0
LINE
  5
5660
330
1B
100
AcDbEntity
 67
     1
  8
AM_7
100
AcDbLine
 10
106.8562814137588
 20
157.1661075873881
 30
0.0
 11
115.8562814137588
 21
157.1661075873881
 31
0.0
  0
LINE
  5
5663
330
1B
100
AcDbEntity
 67
     1
  8
AM_7
100
AcDbLine
 10
106.8562814137589
 20
124.7118043173881
 30
0.0
 11
115.8562814137588
 21
124.7118043173881
 31
0.0
  0
LINE
  5
5669
330
1B
100
AcDbEntity
 67
     1
  8
AM_7
 60
     1
100
AcDbLine
 10
128.8562814137589
 20
64.00440431738812
 30
0.0
 11
101.8562814137589
 21
64.00440431738812
 31
0.0
  0
LINE
  5
566F
330
1B
100
AcDbEntity
 67
     1
  8
AM_7
100
AcDbLine
 10
128.8562814137589
 20
90.00440431738812
 30
0.0
 11
101.8562814137589
 21
90.00440431738812
 31
0.0
  0
LINE
  5
5672
330
1B
100
AcDbEntity
 67
     1
  8
AM_7
100
AcDbLine
 10
128.8562814137589
 20
80.7244043173881
 30
0.0
 11
101.8562814137589
 21
80.7244043173881
 31
0.0
  0
LINE
  5
5675
330
1B
100
AcDbEntity
 67
     1
  8
AM_7
100
AcDbLine
 10
128.8562814137589
 20
80.14683906477134
 30
0.0
 11
101.8562814137589
 21
80.14683906477134
 31
0.0
  0
LINE
  5
5678
330
1B
100
AcDbEntity
 67
     1
  8
AM_7
100
AcDbLine
 10
115.356281413759
 20
76.00440431738812
 30
0.0
 11
115.356281413759
 21
76.00440431738812
 31
0.0
  0
LINE
  5
5679
330
1B
100
AcDbEntity
 67
     1
  8
AM_7
100
AcDbLine
 10
115.356281413759
 20
76.00440431738812
 30
0.0
 11
115.356281413759
 21
76.00440431738812
 31
0.0
  0
LINE
  5
567A
330
1B
100
AcDbEntity
 67
     1
  8
AM_7
100
AcDbLine
 10
109.106281413759
 20
76.00440431738812
 30
0.0
 11
115.356281413759
 21
76.00440431738812
 31
0.0
  0
LINE
  5
567B
330
1B
100
AcDbEntity
 67
     1
  8
AM_7
100
AcDbLine
 10
115.356281413759
 20
76.00440431738812
 30
0.0
 11
121.606281413759
 21
76.00440431738812
 31
0.0
  0
LINE
  5
567C
330
1B
100
AcDbEntity
 67
     1
  8
AM_7
100
AcDbLine
 10
115.356281413759
 20
69.75440431738812
 30
0.0
 11
115.356281413759
 21
76.00440431738812
 31
0.0
  0
LINE
  5
567D
330
1B
100
AcDbEntity
 67
     1
  8
AM_7
100
AcDbLine
 10
115.356281413759
 20
76.00440431738812
 30
0.0
 11
115.356281413759
 21
82.25440431738812
 31
0.0
  0
LINE
  5
5680
330
1B
100
AcDbEntity
 67
     1
  8
AM_7
100
AcDbLine
 10
115.356281413759
 20
90.00440431738812
 30
0.0
 11
115.356281413759
 21
90.00440431738812
 31
0.0
  0
LINE
  5
5681
330
1B
100
AcDbEntity
 67
     1
  8
AM_7
100
AcDbLine
 10
115.356281413759
 20
90.00440431738812
 30
0.0
 11
115.356281413759
 21
90.00440431738812
 31
0.0
  0
LINE
  5
5682
330
1B
100
AcDbEntity
 67
     1
  8
AM_7
100
AcDbLine
 10
109.106281413759
 20
90.00440431738812
 30
0.0
 11
115.356281413759
 21
90.00440431738812
 31
0.0
  0
LINE
  5
5683
330
1B
100
AcDbEntity
 67
     1
  8
AM_7
100
AcDbLine
 10
115.356281413759
 20
90.00440431738812
 30
0.0
 11
121.606281413759
 21
90.00440431738812
 31
0.0
  0
LINE
  5
5684
330
1B
100
AcDbEntity
 67
     1
  8
AM_7
100
AcDbLine
 10
115.356281413759
 20
83.75440431738812
 30
0.0
 11
115.356281413759
 21
90.00440431738812
 31
0.0
  0
LINE
  5
5685
330
1B
100
AcDbEntity
 67
     1
  8
AM_7
100
AcDbLine
 10
115.356281413759
 20
90.00440431738812
 30
0.0
 11
115.356281413759
 21
96.25440431738812
 31
0.0
  0
LINE
  5
5689
330
1B
100
AcDbEntity
 67
     1
  8
AM_7
100
AcDbLine
 10
128.8562814137589
 20
64.00440431738812
 30
0.0
 11
101.8562814137589
 21
64.00440431738812
 31
0.0
  0
LINE
  5
568C
330
1B
100
AcDbEntity
 67
     1
  8
AM_7
100
AcDbLine
 10
93.35628141375899
 20
146.4618043173878
 30
0.0
 11
138.356281413759
 21
146.4618043173878
 31
0.0
  0
DIMENSION
  5
56A2
330
1B
100
AcDbEntity
 67
     1
  8
AM_REFDIM
100
AcDbDimension
  2
*D60
 10
103.3562814137589
 20
180.3754495606531
 30
0.0
 11
111.6479480804256
 21
182.6254495606531
 31
0.0
 70
    32
 71
     5
 42
6.0
  3
Standard
100
AcDbAlignedDimension
 13
97.35628141375897
 23
173.2852958836533
 33
0.0
 14
103.3562814137589
 24
173.2852958836533
 34
0.0
100
AcDbRotatedDimension
  0
DIMENSION
  5
56CE
330
1B
100
AcDbEntity
 67
     1
  8
AM_REFDIM
100
AcDbDimension
  2
*D61
 10
113.5106504852133
 20
78.67950178768627
 30
0.0
 11
143.2202984668508
 21
42.50244702418512
 31
0.0
 70
   163
 71
     5
 42
6.5
  3
Standard
100
AcDbDiametricDimension
 15
117.2019123423047
 25
73.32930684709002
 35
0.0
 40
0.0
  0
DIMENSION
  5
56F1
330
1B
100
AcDbEntity
 67
     1
  8
AM_REFDIM
100
AcDbDimension
  2
*D62
 10
147.737183244099
 20
90.00440431738812
 30
0.0
 11
145.4871832440989
 21
83.00440431738813
 31
0.0
 70
    32
 71
     5
 42
14.0
  3
Standard
100
AcDbAlignedDimension
 13
121.606281413759
 23
76.00440431738812
 33
0.0
 14
128.8562814137589
 24
90.00440431738812
 34
0.0
 50
90.00000000000003
100
AcDbRotatedDimension
1001
ACAD
1000
DSTYLE
1002
{
1070
   271
1070
     0
1002
}
  0
DIMENSION
  5
5720
330
1B
100
AcDbEntity
 67
     1
  8
AM_REFDIM
100
AcDbDimension
  2
*D63
 10
147.737183244099
 20
90.00440431738812
 30
0.0
 11
145.487183244099
 21
93.00440431738813
 31
0.0
 70
    32
 71
     5
 42
6.0
  3
Standard
100
AcDbAlignedDimension
 13
125.8562814137589
 23
96.00440431738812
 33
0.0
 14
128.8562814137589
 24
90.00440431738812
 34
0.0
 50
90.00000000000003
100
AcDbRotatedDimension
1001
ACAD
1000
DSTYLE
1002
{
1070
   271
1070
     0
1002
}
  0
DIMENSION
  5
574D
330
1B
100
AcDbEntity
 67
     1
  8
AM_REFDIM
100
AcDbDimension
  2
*D64
 10
144.3147325682325
 20
106.0044043173881
 30
0.0
 11
142.4813992348991
 21
103.2544043173881
 31
0.0
 70
    32
 71
     5
 42
3.0
  3
Standard
100
AcDbAlignedDimension
 13
139.3572887601693
 23
109.0044043173881
 33
0.0
 14
139.3572887601693
 24
106.0044043173881
 34
0.0
 50
90.00000000000003
100
AcDbRotatedDimension
1001
ACAD
1000
DSTYLE
1002
{
1070
   271
1070
     0
1002
}
  0
DIMENSION
  5
5785
330
1B
100
AcDbEntity
 67
     1
  8
AM_REFDIM
100
AcDbDimension
  2
*D65
 10
337.5972551646345
 20
272.1255483507391
 30
0.0
 11
275.7658646046531
 21
274.3755483507391
 31
0.0
 70
    32
 71
     5
 42
123.6627811199627
  3
Standard
100
AcDbAlignedDimension
 13
213.9344740446718
 23
246.5370913254594
 33
0.0
 14
337.5972551646345
 24
238.5584733403026
 34
0.0
 50
0.0000000000000114
100
AcDbRotatedDimension
1001
ACAD
1000
DSTYLE
1002
{
1070
   271
1070
     0
1002
}
  0
DIMENSION
  5
57BC
330
1B
100
AcDbEntity
 67
     1
  8
AM_REFDIM
100
AcDbDimension
  2
*D66
 10
287.8340712442679
 20
264.5380986718698
 30
0.0
 11
270.3340712442679
 21
266.7880986718698
 31
0.0
 70
    32
 71
     5
 42
35.0
  3
Standard
100
AcDbAlignedDimension
 13
252.8340712442679
 23
252.5380986718698
 33
0.0
 14
287.8340712442679
 24
252.5380986718698
 34
0.0
 50
0.0000000000000114
100
AcDbRotatedDimension
1001
ACAD
1000
DSTYLE
1002
{
1070
   271
1070
     0
1002
}
  0
DIMENSION
  5
57EF
330
1B
100
AcDbEntity
 67
     1
  8
AM_REFDIM
100
AcDbDimension
  2
*D67
 10
298.0840712442679
 20
223.036083979049
 30
0.0
 11
295.8340712442678
 21
235.5370913254594
 31
0.0
 70
    32
 71
     5
 42
25.00201469282072
  3
Standard
100
AcDbAlignedDimension
 13
286.0840712442679
 23
248.0380986718697
 33
0.0
 14
286.0840712442679
 24
223.036083979049
 34
0.0
 50
90.00000000000003
100
AcDbRotatedDimension
1001
ACAD
1000
DSTYLE
1002
{
1070
   271
1070
     0
1002
}
  0
DIMENSION
  5
5820
330
1B
100
AcDbEntity
 67
     1
  8
AM_REFDIM
100
AcDbDimension
  2
*D68
 10
311.9505920713818
 20
219.536083979049
 30
0.0
 11
309.7005920713817
 21
235.5370913254594
 31
0.0
 70
    32
 71
     5
 42
32.00201469282072
  3
Standard
100
AcDbAlignedDimension
 13
286.0840712442679
 23
251.5380986718697
 33
0.0
 14
286.0840712442679
 24
219.536083979049
 34
0.0
 50
90.00000000000003
100
AcDbRotatedDimension
1001
ACAD
1000
DSTYLE
1002
{
1070
   271
1070
     0
1002
}
  0
DIMENSION
  5
584A
330
1B
100
AcDbEntity
 67
     1
  8
AM_REFDIM
100
AcDbDimension
  2
*D69
 10
322.3113891169925
 20
212.036083979049
 30
0.0
 11
320.0613891169925
 21
235.5370913254594
 31
0.0
 70
    32
 71
     5
 42
47.00201469282077
  3
Standard
100
AcDbAlignedDimension
 13
281.3340712442679
 23
259.0380986718698
 33
0.0
 14
281.3340712442679
 24
212.036083979049
 34
0.0
 50
90.0
100
AcDbRotatedDimension
1001
ACAD
1000
DSTYLE
1002
{
1070
   271
1070
     0
1002
}
  0
DIMENSION
  5
5880
330
1B
100
AcDbEntity
 67
     1
  8
AM_REFDIM
100
AcDbDimension
  2
*D70
 10
204.4504260650656
 20
225.5370913254594
 30
0.0
 11
202.2004260650655
 21
236.0370913254595
 31
0.0
 70
    32
 71
     5
 42
21.0
  3
Standard
100
AcDbAlignedDimension
 13
213.9344740446718
 23
246.5370913254594
 33
0.0
 14
213.9344740446718
 24
225.5370913254594
 34
0.0
 50
90.00000000000003
100
AcDbRotatedDimension
1001
ACAD
1000
DSTYLE
1002
{
1070
   271
1070
     0
1002
}
  0
DIMENSION
  5
58B5
330
1B
100
AcDbEntity
 67
     1
  8
AM_REFDIM
100
AcDbDimension
  2
*D71
 10
279.8340712442679
 20
194.6056730462312
 30
0.0
 11
270.3340712442679
 21
196.8556730462312
 31
0.0
 70
    32
 71
     5
 42
19.0
  3
Standard
100
AcDbAlignedDimension
 13
260.8340712442679
 23
213.2860839790492
 33
0.0
 14
279.8340712442679
 24
213.2860839790492
 34
0.0
 50
0.0000000000001132
100
AcDbRotatedDimension
1001
ACAD
1000
DSTYLE
1002
{
1070
   271
1070
     0
1002
}
  0
DIMENSION
  5
5900
330
1B
100
AcDbEntity
 67
     1
  8
AM_REFDIM
100
AcDbDimension
  2
*D74
 10
277.7153417609107
 20
222.0005282118029
 30
0.0
 11
300.4459972213755
 21
201.0859551156352
 31
0.0
 70
   163
 71
     5
 42
6.500000000000056
  3
Standard
100
AcDbDiametricDimension
 15
281.9528007276248
 25
217.0716397462952
 35
0.0
 40
0.0
  0
DIMENSION
  5
592B
330
1B
100
AcDbEntity
 67
     1
  8
AM_REFDIM
100
AcDbDimension
  2
*D75
 10
362.5599822894806
 20
106.004404317388
 30
0.0
 11
360.3099822894806
 21
136.6388987077675
 31
0.0
 70
    32
 71
     5
 42
61.26898878075883
  3
Standard
100
AcDbAlignedDimension
 13
329.5972551646345
 23
167.2733930981469
 33
0.0
 14
287.8340712442679
 24
106.004404317388
 34
0.0
 50
90.0
100
AcDbRotatedDimension
1001
ACAD
1000
DSTYLE
1002
{
1070
   271
1070
     0
1002
}
  0
DIMENSION
  5
5A5F
330
1B
100
AcDbEntity
 67
     1
  8
AM_REFDIM
100
AcDbDimension
  2
*D76
 10
375.8528050135308
 20
169.7733930981467
 30
0.0
 11
373.6028050135307
 21
116.8888987077674
 31
0.0
 70
    32
 71
     5
 42
105.7689887807586
  3
Standard
100
AcDbAlignedDimension
 13
243.3589889100579
 23
64.00440431738812
 33
0.0
 14
329.5972551646346
 24
169.7733930981467
 34
0.0
 50
90.0
100
AcDbRotatedDimension
1001
ACAD
1000
DSTYLE
1002
{
1070
   271
1070
     0
1002
}
  0
LINE
  5
5B18
330
1B
100
AcDbEntity
 67
     1
  8
AM_7
100
AcDbLine
 10
260.8340712442679
 20
103.004404317388
 30
0.0
 11
260.8340712442679
 21
112.004404317388
 31
0.0
  0
LINE
  5
5B1B
330
1B
100
AcDbEntity
 67
     1
  8
AM_7
100
AcDbLine
 10
279.8340712442679
 20
103.004404317388
 30
0.0
 11
279.8340712442679
 21
112.004404317388
 31
0.0
  0
LINE
  5
5B1E
330
1B
100
AcDbEntity
 67
     1
  8
AM_7
100
AcDbLine
 10
264.0840712442679
 20
124.6118043173879
 30
0.0
 11
264.0840712442679
 21
124.6118043173879
 31
0.0
  0
LINE
  5
5B1F
330
1B
100
AcDbEntity
 67
     1
  8
AM_7
100
AcDbLine
 10
264.0840712442679
 20
124.6118043173879
 30
0.0
 11
264.0840712442679
 21
124.6118043173879
 31
0.0
  0
LINE
  5
5B20
330
1B
100
AcDbEntity
 67
     1
  8
AM_7
100
AcDbLine
 10
255.0840712442679
 20
124.6118043173879
 30
0.0
 11
264.0840712442679
 21
124.6118043173879
 31
0.0
  0
LINE
  5
5B21
330
1B
100
AcDbEntity
 67
     1
  8
AM_7
100
AcDbLine
 10
264.0840712442679
 20
124.6118043173879
 30
0.0
 11
273.0840712442679
 21
124.6118043173879
 31
0.0
  0
LINE
  5
5B22
330
1B
100
AcDbEntity
 67
     1
  8
AM_7
100
AcDbLine
 10
264.0840712442679
 20
115.6118043173879
 30
0.0
 11
264.0840712442679
 21
124.6118043173879
 31
0.0
  0
LINE
  5
5B23
330
1B
100
AcDbEntity
 67
     1
  8
AM_7
100
AcDbLine
 10
264.0840712442679
 20
124.6118043173879
 30
0.0
 11
264.0840712442679
 21
133.6118043173879
 31
0.0
  0
LINE
  5
5B26
330
1B
100
AcDbEntity
 67
     1
  8
AM_7
100
AcDbLine
 10
268.8528660901299
 20
124.6118043173879
 30
0.0
 11
268.8528660901299
 21
124.6118043173879
 31
0.0
  0
LINE
  5
5B27
330
1B
100
AcDbEntity
 67
     1
  8
AM_7
100
AcDbLine
 10
268.8528660901299
 20
124.6118043173879
 30
0.0
 11
268.8528660901299
 21
124.6118043173879
 31
0.0
  0
LINE
  5
5B28
330
1B
100
AcDbEntity
 67
     1
  8
AM_7
100
AcDbLine
 10
259.8528660901299
 20
124.6118043173879
 30
0.0
 11
268.8528660901299
 21
124.6118043173879
 31
0.0
  0
LINE
  5
5B29
330
1B
100
AcDbEntity
 67
     1
  8
AM_7
100
AcDbLine
 10
268.8528660901299
 20
124.6118043173879
 30
0.0
 11
277.8528660901299
 21
124.6118043173879
 31
0.0
  0
LINE
  5
5B2A
330
1B
100
AcDbEntity
 67
     1
  8
AM_7
100
AcDbLine
 10
268.8528660901299
 20
115.6118043173879
 30
0.0
 11
268.8528660901299
 21
124.6118043173879
 31
0.0
  0
LINE
  5
5B2B
330
1B
100
AcDbEntity
 67
     1
  8
AM_7
100
AcDbLine
 10
268.8528660901299
 20
124.6118043173879
 30
0.0
 11
268.8528660901299
 21
133.6118043173879
 31
0.0
  0
LINE
  5
5B2E
330
1B
100
AcDbEntity
 67
     1
  8
AM_7
100
AcDbLine
 10
326.6165144662267
 20
152.7733930981468
 30
0.0
 11
326.6165144662267
 21
152.7733930981468
 31
0.0
  0
LINE
  5
5B2F
330
1B
100
AcDbEntity
 67
     1
  8
AM_7
100
AcDbLine
 10
326.6165144662267
 20
152.7733930981468
 30
0.0
 11
326.6165144662267
 21
152.7733930981468
 31
0.0
  0
LINE
  5
5B30
330
1B
100
AcDbEntity
 67
     1
  8
AM_7
100
AcDbLine
 10
317.6165144662267
 20
152.7733930981468
 30
0.0
 11
326.6165144662267
 21
152.7733930981468
 31
0.0
  0
LINE
  5
5B31
330
1B
100
AcDbEntity
 67
     1
  8
AM_7
100
AcDbLine
 10
326.6165144662267
 20
152.7733930981468
 30
0.0
 11
335.6165144662266
 21
152.7733930981468
 31
0.0
  0
LINE
  5
5B32
330
1B
100
AcDbEntity
 67
     1
  8
AM_7
100
AcDbLine
 10
326.6165144662267
 20
143.7733930981468
 30
0.0
 11
326.6165144662267
 21
152.7733930981468
 31
0.0
  0
LINE
  5
5B33
330
1B
100
AcDbEntity
 67
     1
  8
AM_7
100
AcDbLine
 10
326.6165144662267
 20
152.7733930981468
 30
0.0
 11
326.6165144662267
 21
161.7733930981468
 31
0.0
  0
LINE
  5
5B36
330
1B
100
AcDbEntity
 67
     1
  8
AM_7
100
AcDbLine
 10
237.3589889100578
 20
76.00440431738812
 30
0.0
 11
246.3589889100578
 21
76.00440431738812
 31
0.0
  0
LINE
  5
5B39
330
1B
100
AcDbEntity
 67
     1
  8
AM_7
100
AcDbLine
 10
237.3589889100578
 20
90.00440431738812
 30
0.0
 11
246.3589889100578
 21
90.00440431738812
 31
0.0
  0
LINE
  5
5B3E
330
1B
100
AcDbEntity
 67
     1
  8
AM_4
100
AcDbLine
 10
243.1687375815588
 20
140.8435012692197
 30
0.0
 11
242.712107107621
 21
136.86965066681
 31
0.0
  0
LINE
  5
5B40
330
1B
100
AcDbEntity
 67
     1
  8
AM_4
100
AcDbLine
 10
249.1295134851732
 20
140.158555558313
 30
0.0
 11
248.6728830112355
 21
136.1847049559034
 31
0.0
  0
DIMENSION
  5
5B57
330
1B
100
AcDbEntity
 67
     1
  8
AM_REFDIM
100
AcDbDimension
  2
*D77
 10
319.1633648885654
 20
106.004404317388
 30
0.0
 11
316.9133648885654
 21
101.0044043173881
 31
0.0
 70
    32
 71
     5
 42
9.999999999999971
  3
Standard
100
AcDbAlignedDimension
 13
237.8589889100578
 23
96.00440431738812
 33
0.0
 14
281.3340712442679
 24
106.004404317388
 34
0.0
 50
90.0
100
AcDbRotatedDimension
1001
ACAD
1000
DSTYLE
1002
{
1070
   271
1070
     0
1002
}
  0
DIMENSION
  5
5B76
330
1B
100
AcDbEntity
 67
     1
  8
AM_REFDIM
100
AcDbDimension
  2
*D78
 10
268.899889080729
 20
64.00440431738812
 30
0.0
 11
266.649889080729
 21
80.00440431738816
 31
0.0
 70
    32
 71
     5
 42
32.0
  3
Standard
100
AcDbAlignedDimension
 13
237.8589889100578
 23
96.00440431738812
 33
0.0
 14
243.3589889100578
 24
64.00440431738812
 34
0.0
 50
90.0
100
AcDbRotatedDimension
1001
ACAD
1000
DSTYLE
1002
{
1070
   271
1070
     0
1002
}
  0
ENDSEC
  0
SECTION
  2
OBJECTS
  0
DICTIONARY
  5
C
330
0
100
AcDbDictionary
281
     1
  3
ACAD_GROUP
350
D
  3
ACAD_LAYOUT
350
1A
  3
ACAD_MLINESTYLE
350
17
  3
ACAD_PLOTSETTINGS
350
19
  3
ACAD_PLOTSTYLENAME
350
E
  3
AcDbVariableDictionary
350
30
  3
AcmDictionary
350
EA
  3
AMG
350
6A
  3
AMGSNAPSETTINGS
350
133
  3
DWGPROPS
350
5DBA
  3
MAPISURF_MODULE
350
BA
  0
DICTIONARY
  5
10F
330
1F
100
AcDbDictionary
280
     1
281
     1
  3
ACAD_INDEX
360
110
  0
DICTIONARY
  5
D
102
{ACAD_REACTORS
330
C
102
}
330
C
100
AcDbDictionary
281
     1
  3
*A1
350
2A7E
  3
*A2
350
2FCC
  3
*A3
350
2FCF
  3
*A4
350
322B
  3
*A5
350
322E
  0
DICTIONARY
  5
1A
102
{ACAD_REACTORS
330
C
102
}
330
C
100
AcDbDictionary
281
     1
  3
Layout1
350
1E
  3
Model
350
22
  0
DICTIONARY
  5
17
102
{ACAD_REACTORS
330
C
102
}
330
C
100
AcDbDictionary
281
     1
  3
Standard
350
18
  0
DICTIONARY
  5
19
102
{ACAD_REACTORS
330
C
102
}
330
C
100
AcDbDictionary
281
     1
  3
A4 PLOT
350
279
  0
ACDBDICTIONARYWDFLT
  5
E
102
{ACAD_REACTORS
330
C
102
}
330
C
100
AcDbDictionary
281
     1
  3
Normal
350
F
100
AcDbDictionaryWithDefault
340
F
  0
DICTIONARY
  5
30
102
{ACAD_REACTORS
330
C
102
}
330
C
100
AcDbDictionary
281
     1
  3
INDEXCTL
350
31
  0
DICTIONARY
  5
EA
102
{ACAD_REACTORS
330
C
102
}
330
C
100
AcDbDictionary
281
     1
  3
AcmBOMDATA
350
EB
  3
AcmStdDictionary
350
13B
  0
DICTIONARY
  5
6A
102
{ACAD_REACTORS
330
C
102
}
330
C
100
AcDbDictionary
281
     1
  3
AcMgSettings
350
6B
  3
AMGLAYCFG
350
F6
  0
DICTIONARY
  5
133
102
{ACAD_REACTORS
330
C
102
}
330
C
100
AcDbDictionary
281
     1
  3
DIMENSION
350
138
  3
FEA
350
137
  3
HATCH (1)
350
134
  3
HATCH (2)
350
135
  3
SIMPLE WELD
350
139
  3
SYMBOLS
350
136
  0
XRECORD
  5
5DBA
102
{ACAD_REACTORS
330
C
102
}
330
C
100
AcDbXrecord
280
     1
  1
DWGPROPS COOKIE
  2

  3

  4

  6

  7

  8

  9

300
AmdtFileType=84
301
=
302
=
303
=
304
=
305
=
306
=
307
=
308
=
309
=
 40
0.145249224537037
 41
2452698.683146967
 42
2453888.634963993
  1

 90
        1
  0
DICTIONARY
  5
110
102
{ACAD_REACTORS
330
10F
102
}
330
10F
100
AcDbDictionary
281
     1
  3
*A1
350
111
  0
GROUP
  5
2A7E
102
{ACAD_REACTORS
330
D
102
}
330
D
100
AcDbGroup
300
Layout1
 70
     0
 71
     1
  0
GROUP
  5
2FCC
102
{ACAD_REACTORS
330
D
102
}
330
D
100
AcDbGroup
300
Layout1
 70
     3
 71
     1
  0
GROUP
  5
2FCF
102
{ACAD_REACTORS
330
D
102
}
330
D
100
AcDbGroup
300
Layout1
 70
     3
 71
     1
  0
GROUP
  5
322B
102
{ACAD_REACTORS
330
D
102
}
330
D
100
AcDbGroup
300
Layout1
 70
     3
 71
     1
  0
GROUP
  5
322E
102
{ACAD_REACTORS
330
D
102
}
330
D
100
AcDbGroup
300
Layout1
 70
     3
 71
     1
  0
LAYOUT
  5
1E
102
{ACAD_REACTORS
330
1A
102
}
330
1A
100
AcDbPlotSettings
  1

  2
\\HMCFILE2\Design HP lj5si
  4
A4
  6

 40
5.873749732971191
 41
5.408092021942138
 42
5.577407836914062
 43
5.069427490234375
 44
209.9733276367187
 45
296.9683227539062
 46
0.0
 47
5.849999999999999
 48
0.0
 49
0.0
140
0.0
141
0.0
142
1.0
143
1.455836788160155
 70
   692
 72
     1
 73
     1
 74
     1
  7
monochrome.ctb
 75
     0
147
0.6868901844854264
148
-9.977619036286569
149
-9.993411456145167
100
AcDbLayout
  1
Layout1
 70
     1
 71
     1
 10
-0.6488269631991859
 20
2.634989174607843
 11
420.6546817638131
 21
300.6828980762912
 12
0.0
 22
0.0
 32
0.0
 14
89.80517333270759
 24
42.50244702418512
 34
0.0
 15
377.1028050135308
 25
275.6255483507391
 35
0.0
146
0.0
 13
0.0
 23
0.0
 33
0.0
 16
1.0
 26
0.0
 36
0.0
 17
0.0
 27
1.0
 37
0.0
 76
     0
330
1B
331
106
  0
LAYOUT
  5
22
102
{ACAD_REACTORS
330
1A
102
}
330
1A
100
AcDbPlotSettings
  1

  2
\\HMCFILE2\DeskLaser 2000
  4

  6

 40
0.0
 41
0.0
 42
0.0
 43
0.0
 44
0.0
 45
0.0
 46
0.0
 47
0.0
 48
0.0
 49
0.0
140
0.0
141
0.0
142
1.0
143
1.0
 70
  1712
 72
     0
 73
     0
 74
     0
  7
monochrome.ctb
 75
     0
147
1.0
148
0.0
149
0.0
100
AcDbLayout
  1
Model
 70
     1
 71
     0
 10
0.0
 20
0.0
 11
12.0
 21
9.0
 12
0.0
 22
0.0
 32
0.0
 14
0.0
 24
0.0
 34
0.0
 15
0.0
 25
0.0
 35
0.0
146
0.0
 13
0.0
 23
0.0
 33
0.0
 16
1.0
 26
0.0
 36
0.0
 17
0.0
 27
1.0
 37
0.0
 76
     0
330
1F
  0
MLINESTYLE
  5
18
102
{ACAD_REACTORS
330
17
102
}
330
17
100
AcDbMlineStyle
  2
STANDARD
 70
     0
  3

 62
   256
 51
90.0
 52
90.0
 71
     2
 49
0.5
 62
   256
  6
BYLAYER
 49
-0.5
 62
   256
  6
BYLAYER
  0
PLOTSETTINGS
  5
279
102
{ACAD_REACTORS
330
19
102
}
330
19
100
AcDbPlotSettings
  1
A4 PLOT
  2
\\HMCFILE2\DeskLaser 2000
  4
A4
  6

 40
3.174999952316284
 41
3.174999952316284
 42
3.175003051757812
 43
3.17498779296875
 44
210.0579986572265
 45
296.9259948730469
 46
2.0
 47
4.32
 48
0.0
 49
0.0
140
0.0
141
0.0
142
1.0
143
1.4188838835318
 70
   688
 72
     1
 73
     1
 74
     1
  7
monochrome.ctb
 75
     0
147
0.70477930689498
148
-9.985690423511755
149
-9.977713204227256
  0
ACDBPLACEHOLDER
  5
F
102
{ACAD_REACTORS
330
E
102
}
330
E
  0
DICTIONARYVAR
  5
31
102
{ACAD_REACTORS
330
30
102
}
330
30
100
DictionaryVariables
280
     0
  1
1
  0
ACMDATADICTIONARY
  5
EB
102
{ACAD_REACTORS
330
EA
102
}
330
EA
100
AcDbDictionary
281
     1
  3
*A1
350
EC
  3
*A10
350
38C
  3
*A11
350
3A9
  3
*A12
350
36E
  3
*A13
350
3AA
  3
*A14
350
3C6
  3
*A15
350
60C
  3
*A16
350
3E3
  3
*A17
350
496
  3
*A18
350
3E4
  3
*A19
350
402
  3
*A2
350
4C2
  3
*A20
350
403
  3
*A21
350
439
  3
*A22
350
34F
  3
*A23
350
450
  3
*A24
350
451
  3
*A25
350
46F
  3
*A26
350
4C1
  3
*A27
350
470
  3
*A28
350
495
  3
*A29
350
3C5
  3
*A3
350
4E6
  3
*A4
350
60D
  3
*A5
350
4E7
  3
*A6
350
38B
  3
*A7
350
350
  3
*A8
350
36D
  3
*A9
350
438
100
AcmDataDictionary
  0
DICTIONARY
  5
13B
102
{ACAD_REACTORS
330
EA
102
}
330
EA
100
AcDbDictionary
281
     1
  3
ISO
350
13C
  0
DICTIONARY
  5
6B
102
{ACAD_REACTORS
330
6A
102
}
330
6A
100
AcDbDictionary
281
     1
  3
DWGSETTINGS
350
6C
  0
ACAMGFILTERDAT
  5
138
102
{ACAD_REACTORS
330
133
102
}
330
133
100
AcAmgFilterDat
 70
    15
  1
DIMENSION,AMDT_*_DIM
  2
*
  3
*
  4
*
  5
*
290
     1
  0
ACAMGFILTERDAT
  5
137
102
{ACAD_REACTORS
330
133
102
}
330
133
100
AcAmgFilterDat
 70
    15
  1
*
  2
AM_FEA-AM_*
  3
*
  4
*
  5
*
290
     1
  0
ACAMGFILTERDAT
  5
134
102
{ACAD_REACTORS
330
133
102
}
330
133
100
AcAmgFilterDat
 70
    15
  1
HATCH
  2
*
  3
*
  4
*
  5
*
290
     1
  0
ACAMGFILTERDAT
  5
135
102
{ACAD_REACTORS
330
133
102
}
330
133
100
AcAmgFilterDat
 70
    15
  1
LINE
  2
8,8N,*-8,*-8N,AM_8,AM_8N,*-AM_8,*-AM_8N
  3
*
  4
*
  5
INSERT,STDPART2D
290
     1
  0
ACAMGFILTERDAT
  5
139
102
{ACAD_REACTORS
330
133
102
}
330
133
100
AcAmgFilterDat
 70
    15
  1
ARC
  2
AM_5
  3
*
  4
2
  5
INSERT
290
     0
  0
ACAMGFILTERDAT
  5
136
102
{ACAD_REACTORS
330
133
102
}
330
133
100
AcAmgFilterDat
 70
    15
  1
ACMFCFRAME,ACMDATUMTARGET,ACMDATUMID,ACMWELDSYM,ACMSURFSYM,ACMFEATID,ACMPARTREF,ACMBALLOON,AMDTEDGESYM
  2
*
  3
*
  4
*
  5
*
290
     1
  0
LAYER_INDEX
  5
111
102
{ACAD_REACTORS
330
110
102
}
330
110
100
AcDbIndex
 40
2453909.401599838
100
AcDbLayerIndex
  8
0
360
112
 90
       34
  8
Unt
360
114
 90
        0
  8
Defpoints
360
51C
 90
        0
  8
AM_5
360
51D
 90
        0
  8
AM_WORK
360
525
 90
        0
  8
UNTITLED
360
52E
 90
        0
  8
AM_VIEWS
360
4EF3
 90
        0
  8
AM_VIS
360
4EF4
 90
      783
  8
AM_HID
360
4EF5
 90
      109
  8
AM_7
360
4EF6
 90
        0
  8
AM_FR
360
4EF7
 90
        1
  8
AM_REFDIM
360
599F
 90
        0
  8
AM_4
360
5BE2
 90
        0
  0
ACMDATAENTRYBLOCK
  5
EC
102
{ACAD_REACTORS
330
EB
102
}
330
EB
100
AcmDataEntry
100
AcmDataEntryBlock
  0
ACMDATAENTRYBLOCK
  5
38C
102
{ACAD_REACTORS
330
EB
102
}
330
EB
100
AcmDataEntry
100
AcmDataEntryBlock
  0
ACMDATAENTRYBLOCK
  5
3A9
102
{ACAD_REACTORS
330
EB
102
}
330
EB
100
AcmDataEntry
100
AcmDataEntryBlock
  0
ACMDATAENTRYBLOCK
  5
36E
102
{ACAD_REACTORS
330
EB
102
}
330
EB
100
AcmDataEntry
100
AcmDataEntryBlock
  0
ACMDATAENTRYBLOCK
  5
3AA
102
{ACAD_REACTORS
330
EB
102
}
330
EB
100
AcmDataEntry
100
AcmDataEntryBlock
  0
ACMDATAENTRYBLOCK
  5
3C6
102
{ACAD_REACTORS
330
EB
102
}
330
EB
100
AcmDataEntry
100
AcmDataEntryBlock
  0
ACMDATAENTRYBLOCK
  5
60C
102
{ACAD_REACTORS
330
EB
102
}
330
EB
100
AcmDataEntry
100
AcmDataEntryBlock
  0
ACMDATAENTRYBLOCK
  5
3E3
102
{ACAD_REACTORS
330
EB
102
}
330
EB
100
AcmDataEntry
100
AcmDataEntryBlock
  0
ACMDATAENTRYBLOCK
  5
496
102
{ACAD_REACTORS
330
EB
102
}
330
EB
100
AcmDataEntry
100
AcmDataEntryBlock
  0
ACMDATAENTRYBLOCK
  5
3E4
102
{ACAD_REACTORS
330
EB
102
}
330
EB
100
AcmDataEntry
100
AcmDataEntryBlock
  0
ACMDATAENTRYBLOCK
  5
402
102
{ACAD_REACTORS
330
EB
102
}
330
EB
100
AcmDataEntry
100
AcmDataEntryBlock
  0
ACMDATAENTRYBLOCK
  5
4C2
102
{ACAD_REACTORS
330
EB
102
}
330
EB
100
AcmDataEntry
100
AcmDataEntryBlock
  0
ACMDATAENTRYBLOCK
  5
403
102
{ACAD_REACTORS
330
EB
102
}
330
EB
100
AcmDataEntry
100
AcmDataEntryBlock
  0
ACMDATAENTRYBLOCK
  5
439
102
{ACAD_REACTORS
330
EB
102
}
330
EB
100
AcmDataEntry
100
AcmDataEntryBlock
  0
ACMDATAENTRYBLOCK
  5
34F
102
{ACAD_REACTORS
330
EB
102
}
330
EB
100
AcmDataEntry
100
AcmDataEntryBlock
  0
ACMDATAENTRYBLOCK
  5
450
102
{ACAD_REACTORS
330
EB
102
}
330
EB
100
AcmDataEntry
100
AcmDataEntryBlock
  0
ACMDATAENTRYBLOCK
  5
451
102
{ACAD_REACTORS
330
EB
102
}
330
EB
100
AcmDataEntry
100
AcmDataEntryBlock
  0
ACMDATAENTRYBLOCK
  5
46F
102
{ACAD_REACTORS
330
EB
102
}
330
EB
100
AcmDataEntry
100
AcmDataEntryBlock
  0
ACMDATAENTRYBLOCK
  5
4C1
102
{ACAD_REACTORS
330
EB
102
}
330
EB
100
AcmDataEntry
100
AcmDataEntryBlock
  0
ACMDATAENTRYBLOCK
  5
470
102
{ACAD_REACTORS
330
EB
102
}
330
EB
100
AcmDataEntry
100
AcmDataEntryBlock
  0
ACMDATAENTRYBLOCK
  5
495
102
{ACAD_REACTORS
330
EB
102
}
330
EB
100
AcmDataEntry
100
AcmDataEntryBlock
  0
ACMDATAENTRYBLOCK
  5
3C5
102
{ACAD_REACTORS
330
EB
102
}
330
EB
100
AcmDataEntry
100
AcmDataEntryBlock
  0
ACMDATAENTRYBLOCK
  5
4E6
102
{ACAD_REACTORS
330
EB
102
}
330
EB
100
AcmDataEntry
100
AcmDataEntryBlock
  0
ACMDATAENTRYBLOCK
  5
60D
102
{ACAD_REACTORS
330
EB
102
}
330
EB
100
AcmDataEntry
100
AcmDataEntryBlock
  0
ACMDATAENTRYBLOCK
  5
4E7
102
{ACAD_REACTORS
330
EB
102
}
330
EB
100
AcmDataEntry
100
AcmDataEntryBlock
  0
ACMDATAENTRYBLOCK
  5
38B
102
{ACAD_REACTORS
330
EB
102
}
330
EB
100
AcmDataEntry
100
AcmDataEntryBlock
  0
ACMDATAENTRYBLOCK
  5
350
102
{ACAD_REACTORS
330
EB
102
}
330
EB
100
AcmDataEntry
100
AcmDataEntryBlock
  0
ACMDATAENTRYBLOCK
  5
36D
102
{ACAD_REACTORS
330
EB
102
}
330
EB
100
AcmDataEntry
100
AcmDataEntryBlock
  0
ACMDATAENTRYBLOCK
  5
438
102
{ACAD_REACTORS
330
EB
102
}
330
EB
100
AcmDataEntry
100
AcmDataEntryBlock
  0
IDBUFFER
  5
112
330
0
100
AcDbIdBuffer
330
5DE3
330
5DE4
330
5DE5
330
5DE6
330
5DE7
330
5DE8
330
5DE9
330
5DEA
330
5DEB
330
5DEC
330
5DED
330
5DEE
330
5DEF
330
5DF0
330
5DF1
330
5DF2
330
5DF3
330
617
330
4F8
330
4F1
330
4D3
330
4CC
330
4A7
330
4A0
330
47A
330
45B
330
443
330
40D
330
3EE
330
3D0
330
3B4
330
396
330
378
330
35A
  0
IDBUFFER
  5
114
330
0
100
AcDbIdBuffer
  0
IDBUFFER
  5
51C
330
0
100
AcDbIdBuffer
  0
IDBUFFER
  5
51D
330
0
100
AcDbIdBuffer
  0
IDBUFFER
  5
525
330
0
100
AcDbIdBuffer
  0
IDBUFFER
  5
52E
330
0
100
AcDbIdBuffer
  0
IDBUFFER
  5
4EF3
330
0
100
AcDbIdBuffer
  0
IDBUFFER
  5
4EF4
330
0
100
AcDbIdBuffer
330
533C
330
533D
330
533E
330
533F
330
5341
330
5342
330
5343
330
5344
330
5345
330
5348
330
5349
330
534A
330
534B
330
534D
330
534E
330
534F
330
5350
330
5351
330
5357
330
5359
330
5361
330
5362
330
5367
330
5369
330
536D
330
536E
330
536F
330
5371
330
5374
330
5375
330
5376
330
5378
330
537A
330
537B
330
537C
330
5382
330
5385
330
5389
330
538B
330
538F
330
5392
330
5396
330
5398
330
5399
330
539A
330
539D
330
539E
330
539F
330
53A0
330
53A1
330
53A2
330
53A3
330
53A9
330
53AB
330
53AE
330
53AF
330
53B0
330
53B1
330
53B2
330
53B3
330
53B4
330
53B5
330
53B7
330
53B9
330
53BB
330
53BE
330
53C0
330
53C1
330
53C3
330
53C6
330
53CC
330
53CF
330
53D0
330
53D5
330
53D6
330
53D7
330
53D8
330
53D9
330
53E1
330
53E3
330
53E4
330
53E5
330
53F0
330
53F1
330
53F2
330
53F3
330
53F4
330
53F5
330
53F6
330
53F7
330
53F8
330
53F9
330
53FA
330
53FB
330
53FC
330
53FD
330
53FE
330
53FF
330
5400
330
5401
330
5402
330
5403
330
5404
330
5405
330
5406
330
5407
330
5408
330
5409
330
540A
330
540B
330
540C
330
540D
330
5410
330
5412
330
5414
330
5415
330
5421
330
5423
330
5424
330
5430
330
5431
330
5432
330
5434
330
5436
330
5437
330
5438
330
5439
330
543A
330
543B
330
543D
330
5440
330
5442
330
5443
330
5444
330
5445
330
5446
330
5447
330
5448
330
5449
330
544B
330
5451
330
5452
330
5454
330
5455
330
5456
330
5457
330
5458
330
545C
330
5470
330
5479
330
5482
330
5484
330
5486
330
5490
330
5492
330
5493
330
549C
330
549E
330
549F
330
54A1
330
54A2
330
54A3
330
54A4
330
54A6
330
54A8
330
54AA
330
54AD
330
54AF
330
54B0
330
54B2
330
54B3
330
54B5
330
54B8
330
54B9
330
54BC
330
54BD
330
54C4
330
54C5
330
54C6
330
54C9
330
54CC
330
54CE
330
54CF
330
54D1
330
54D2
330
54D4
330
54D5
330
54D7
330
54D8
330
54DA
330
54DC
330
54DE
330
54E4
330
54E5
330
54E7
330
54E9
330
54EE
330
54EF
330
54F0
330
54F1
330
54F2
330
54F3
330
54F8
330
54F9
330
54FA
330
54FB
330
54FC
330
54FD
330
54FF
330
5501
330
5503
330
5505
330
5506
330
5507
330
5510
330
5511
330
5512
330
5513
330
5514
330
5515
330
551C
330
551D
330
551E
330
551F
330
5520
330
5522
330
5523
330
5525
330
552A
330
552B
330
552E
330
5534
330
5537
330
5538
330
5544
330
5547
330
5549
330
554A
330
554D
330
554E
330
555B
330
555C
330
5560
330
5561
330
5568
330
5569
330
5570
330
5571
330
5575
330
5576
330
557D
330
557E
330
5583
330
5586
330
5587
330
5588
330
558F
330
5590
330
5591
330
5592
330
5593
330
5594
330
5595
330
5596
330
5597
330
5598
330
5599
330
559A
330
559B
330
559C
330
559D
330
559E
330
559F
330
55A0
330
55A3
330
55A4
330
55A7
330
55A8
330
55A9
330
55AE
330
55AF
330
55B0
330
55C3
330
55C6
330
55CD
330
55CF
330
55D1
330
55D2
330
55D4
330
55D6
330
55D9
330
55DB
330
55DD
330
55DE
330
55E0
330
55E2
330
55E5
330
55E6
330
55E8
330
55EB
330
55F1
330
55F3
330
55F5
330
55F6
330
55F8
330
55FA
330
5607
330
5608
330
5609
330
560A
330
560F
330
5611
330
5612
330
5614
330
5615
330
5617
330
5618
330
561A
330
561B
330
561E
330
5A98
330
5A99
330
5A9A
330
5A9B
330
5A9C
330
5A9D
330
5A9E
330
5A9F
330
5AA0
330
5AA3
330
5AA4
330
5AA5
330
5AA6
330
5AA7
330
5AA8
330
5AAA
330
5AAC
330
5AAD
330
5AAF
330
5AB1
330
5ABA
330
5ABB
330
5ABF
330
5AC0
330
5AC6
330
5AC7
330
5AC9
330
5ACA
330
5ACB
330
5ACD
330
5ACE
330
5AD0
330
5AD1
330
5AD3
330
5AD8
330
5ADA
330
5AE1
330
5AE2
330
5AE5
330
5AE6
330
5AE7
330
5AE8
330
5AE9
330
5AEB
330
5AF0
330
5AF1
330
5AF2
330
5AF5
330
5AF9
330
5AFA
330
5AFB
330
5AFD
330
5AFE
330
5B00
330
5B01
330
5B02
330
5B04
330
5B05
330
5B06
330
5B09
330
5B0B
330
5B0D
330
5B0F
330
5B11
330
5B12
330
5B13
330
5B14
330
5B15
330
5B16
330
5B17
330
5A89
330
5A8A
330
5A8B
330
5A8C
330
5A8D
330
5A8E
330
5A8F
330
5A92
330
5A93
330
5A94
330
5A95
330
5A96
330
5A97
330
4D64
330
4D65
330
4D66
330
51F6
330
4D68
330
4D69
330
51F5
330
4D6B
330
51F4
330
4D6D
330
51F3
330
4D6F
330
4D70
330
51F2
330
4D72
330
4D73
330
4D74
330
4D75
330
4D76
330
51F1
330
4D78
330
4D79
330
4D7A
330
4D7B
330
4D7C
330
4D7D
330
51F0
330
4D7F
330
4D80
330
4D81
330
4D82
330
51EF
330
51EA
330
51E9
330
51E8
330
51E7
330
4D88
330
4D89
330
4D8A
330
4D8B
330
4D8C
330
51DA
330
51D8
330
4D8F
330
4D90
330
4D91
330
51D6
330
51D5
330
51D4
330
4D95
330
51D3
330
51D1
330
4D98
330
4D99
330
51CF
330
4D9B
330
4D9C
330
4D9D
330
51CE
330
51CC
330
51CB
330
51C9
330
51C7
330
4DA3
330
51C5
330
4DA5
330
4DA6
330
4DA7
330
4DA8
330
4DA9
330
4DAA
330
4DAB
330
4DAC
330
4DAD
330
51A6
330
51A5
330
4DB0
330
51A2
330
51A1
330
4DB3
330
5195
330
5194
330
5192
330
518F
330
4DB8
330
4DB9
330
4DBA
330
4DBB
330
518E
330
4DBD
330
4DBE
330
4DBF
330
518D
330
518C
330
4DC2
330
518B
330
4DC4
330
4DC5
330
4DC6
330
518A
330
4DC8
330
4DC9
330
5187
330
5186
330
5185
330
5184
330
5183
330
517F
330
517E
330
517D
330
517C
330
517B
330
517A
330
5179
330
5178
330
5175
330
5174
330
5173
330
5172
330
5171
330
5170
330
516F
330
516E
330
516B
330
516A
330
5168
330
5165
330
5160
330
515C
330
515B
330
5157
330
5156
330
5155
330
514E
330
4DEA
330
4DEB
330
4DEC
330
514D
330
5149
330
5148
330
5147
330
4DF1
330
4DF2
330
4DF3
330
5140
330
513F
330
513E
330
5137
330
5136
330
4DF9
330
4DFA
330
5132
330
5131
330
512F
330
5124
330
5122
330
511B
330
511A
330
4E02
330
4E03
330
4F35
330
4F36
330
4F37
330
4F38
330
4F39
330
4F3A
330
4F46
330
4F47
330
4F48
330
4F49
330
4F4B
330
4F4C
330
4F54
330
4F56
330
4F58
330
4F5E
330
4F68
330
4F6B
330
4F6C
330
4F6E
330
4F6F
330
4F70
330
4F71
330
4F72
330
4F73
330
4F74
330
4F76
330
4F78
330
4F79
330
4F7B
330
4F80
330
4F81
330
4F82
330
4F86
330
4F91
330
4F94
330
4F95
330
4F97
330
4F98
330
4F99
330
4F9A
330
4F9B
330
4F9C
330
4F9D
330
4F9E
330
4FA0
330
4FA1
330
4FA3
330
4FA6
330
4FA7
330
4FA9
330
4FAA
330
4FAB
330
4FAC
330
4FAD
330
4FAE
330
4FAF
330
4FB0
330
4FB1
330
4FB2
330
4FB5
330
4FB6
330
4FB7
330
4FB8
330
4FB9
330
4FBB
330
4FBC
330
4FBD
330
4FBE
330
4FC0
330
4FC1
330
4FC3
330
4FC4
330
4FC6
330
4FC7
330
4FC8
330
4FCF
330
4FD0
330
4FD1
330
4FD4
330
4FD5
330
4FD6
330
4FD8
330
4FDF
330
4FEC
330
4FEE
330
4FEF
330
4FF1
330
4FF3
330
4FF5
330
4FF8
330
4FF9
330
4FFA
330
4FFB
330
4FFD
330
4FFF
330
5004
330
5006
330
500B
330
500D
330
500F
330
5015
330
5021
330
5022
330
5027
330
5028
330
5029
330
502B
330
502E
330
5030
330
5037
330
5038
330
5039
330
503A
330
503B
330
503C
330
503D
330
503E
330
503F
330
5040
330
5041
330
5042
330
5043
330
5044
330
5045
330
5046
330
5047
330
5048
330
5049
330
504A
330
504B
330
504C
330
504D
330
504E
330
504F
330
5050
330
5051
330
5052
330
5053
330
5054
330
5055
330
5056
330
505D
330
505E
330
505F
330
5060
330
5065
330
5066
330
506A
330
506B
330
506D
330
506E
330
5073
330
5078
330
5080
330
5082
330
508C
330
508E
330
5096
330
5098
330
5099
330
509B
330
509D
330
509E
330
509F
330
50A1
330
50A3
330
50A6
330
50A7
330
50AA
330
50AB
330
50AD
330
50AE
330
50B0
330
50B3
330
50B4
330
50B9
330
50BA
330
50BC
330
50BD
330
50BF
330
50C0
330
50C3
330
50C5
330
50C6
330
50C8
330
50CA
330
50CC
330
50CD
330
50CF
330
50D0
330
50D1
330
50D7
330
50E3
330
50E5
330
50E6
330
50E8
330
50E9
330
50EA
330
50EB
330
50EC
330
50F1
330
50F2
330
50F6
330
50F7
330
50F8
330
50FA
330
50FC
330
50FD
330
50FE
330
50FF
330
5101
330
5102
330
5104
330
5105
330
510D
330
5116
330
5117
330
5118
330
5119
  0
IDBUFFER
  5
4EF5
330
0
100
AcDbIdBuffer
330
4D67
330
4D6A
330
4D6C
330
4D6E
330
4D71
330
4D77
330
4D7E
330
4D83
330
4D84
330
4D85
330
4D86
330
4D87
330
4D8D
330
4D8E
330
4D92
330
4D93
330
4D94
330
4D96
330
4D97
330
4D9A
330
4D9E
330
4D9F
330
4DA0
330
4DA1
330
4DA2
330
4DA4
330
4DAE
330
4DAF
330
4DB1
330
4DB2
330
4DB4
330
4DB5
330
4DB6
330
4DB7
330
4DBC
330
4DC0
330
4DC1
330
4DC3
330
4DC7
330
4DE6
330
4DE8
330
4DED
330
4DEE
330
4DEF
330
4DF0
330
4DFC
330
4DFE
330
4DFF
330
5AA1
330
5AA2
330
5AA9
330
5AAB
330
5AAE
330
5AB0
330
5AB2
330
5AB3
330
5AB4
330
5AB5
330
5AB6
330
5AB7
330
5AB8
330
5AB9
330
5ABC
330
5ABD
330
5ABE
330
5AC1
330
5AC2
330
5AC3
330
5AC4
330
5AC5
330
5AC8
330
5ACC
330
5ACF
330
5AD2
330
5AD4
330
5AD5
330
5AD6
330
5AD7
330
5AD9
330
5ADB
330
5ADC
330
5ADD
330
5ADE
330
5ADF
330
5AE0
330
5AE3
330
5AE4
330
5AEA
330
5AEC
330
5AED
330
5AEE
330
5AEF
330
5AF3
330
5AF4
330
5AF6
330
5AF7
330
5AF8
330
5AFC
330
5AFF
330
5B03
330
5B07
330
5B08
330
5B0A
330
5B0C
330
5B0E
330
5B10
330
5A88
330
5A90
330
5A91
  0
IDBUFFER
  5
4EF6
330
0
100
AcDbIdBuffer
  0
IDBUFFER
  5
4EF7
330
0
100
AcDbIdBuffer
330
4C91
  0
IDBUFFER
  5
599F
330
0
100
AcDbIdBuffer
  0
IDBUFFER
  5
5BE2
330
0
100
AcDbIdBuffer
  0
ENDSEC
  0
EOF
