  0
SECTION
  2
HEADER
  9
$ACADVER
  1
AC1015
  9
$ACADMAINTVER
 70
    11
  9
$DWGCODEPAGE
  3
ANSI_1252
  9
$INSBASE
 10
0.0
 20
0.0
 30
0.0
  9
$EXTMIN
 10
247.6825615989404
 20
164.7128760969137
 30
-52.99999999999991
  9
$EXTMAX
 10
334.5708516706863
 20
259.6128760969138
 30
53.00000000000008
  9
$LIMMIN
 10
0.0
 20
0.0
  9
$LIMMAX
 10
420.0
 20
297.0
  9
$ORTHOMODE
 70
     0
  9
$REGENMODE
 70
     1
  9
$FILLMODE
 70
     1
  9
$QTEXTMODE
 70
     0
  9
$MIRRTEXT
 70
     1
  9
$LTSCALE
 40
1.0
  9
$ATTMODE
 70
     1
  9
$TEXTSIZE
 40
2.5
  9
$TRACEWID
 40
1.0
  9
$TEXTSTYLE
  7
Standard
  9
$CLAYER
  8
0
  9
$CELTYPE
  6
ByLayer
  9
$CECOLOR
 62
   256
  9
$CELTSCALE
 40
1.0
  9
$DISPSILH
 70
     0
  9
$DIMSCALE
 40
1.0
  9
$DIMASZ
 40
2.5
  9
$DIMEXO
 40
1.5
  9
$DIMDLI
 40
3.75
  9
$DIMRND
 40
0.0
  9
$DIMDLE
 40
0.0
  9
$DIMEXE
 40
1.25
  9
$DIMTP
 40
0.0
  9
$DIMTM
 40
0.0
  9
$DIMTXT
 40
2.5
  9
$DIMCEN
 40
2.5
  9
$DIMTSZ
 40
0.0
  9
$DIMTOL
 70
     0
  9
$DIMLIM
 70
     0
  9
$DIMTIH
 70
     0
  9
$DIMTOH
 70
     1
  9
$DIMSE1
 70
     0
  9
$DIMSE2
 70
     0
  9
$DIMTAD
 70
     1
  9
$DIMZIN
 70
     1
  9
$DIMBLK
  1

  9
$DIMASO
 70
     1
  9
$DIMSHO
 70
     1
  9
$DIMPOST
  1

  9
$DIMAPOST
  1

  9
$DIMALT
 70
     0
  9
$DIMALTD
 70
     3
  9
$DIMALTF
 40
0.03937007874016
  9
$DIMLFAC
 40
1.0
  9
$DIMTOFL
 70
     1
  9
$DIMTVP
 40
0.0
  9
$DIMTIX
 70
     0
  9
$DIMSOXD
 70
     0
  9
$DIMSAH
 70
     0
  9
$DIMBLK1
  1

  9
$DIMBLK2
  1

  9
$DIMSTYLE
  2
Standard
  9
$DIMCLRD
 70
     0
  9
$DIMCLRE
 70
     0
  9
$DIMCLRT
 70
     0
  9
$DIMTFAC
 40
1.0
  9
$DIMGAP
 40
1.0
  9
$DIMJUST
 70
     0
  9
$DIMSD1
 70
     0
  9
$DIMSD2
 70
     0
  9
$DIMTOLJ
 70
     0
  9
$DIMTZIN
 70
     1
  9
$DIMALTZ
 70
     0
  9
$DIMALTTZ
 70
     0
  9
$DIMUPT
 70
     0
  9
$DIMDEC
 70
     1
  9
$DIMTDEC
 70
     1
  9
$DIMALTU
 70
     2
  9
$DIMALTTD
 70
     3
  9
$DIMTXSTY
  7
Standard
  9
$DIMAUNIT
 70
     0
  9
$DIMADEC
 70
     0
  9
$DIMALTRND
 40
0.0
  9
$DIMAZIN
 70
     0
  9
$DIMDSEP
 70
    46
  9
$DIMATFIT
 70
     3
  9
$DIMFRAC
 70
     0
  9
$DIMLDRBLK
  1

  9
$DIMLUNIT
 70
     2
  9
$DIMLWD
 70
    -2
  9
$DIMLWE
 70
    -2
  9
$DIMTMOVE
 70
     0
  9
$LUNITS
 70
     2
  9
$LUPREC
 70
     2
  9
$SKETCHINC
 40
1.0
  9
$FILLETRAD
 40
10.0
  9
$AUNITS
 70
     0
  9
$AUPREC
 70
     0
  9
$MENU
  1
.
  9
$ELEVATION
 40
0.0
  9
$PELEVATION
 40
0.0
  9
$THICKNESS
 40
0.0
  9
$LIMCHECK
 70
     0
  9
$CHAMFERA
 40
10.0
  9
$CHAMFERB
 40
10.0
  9
$CHAMFERC
 40
20.0
  9
$CHAMFERD
 40
0.0
  9
$SKPOLY
 70
     0
  9
$TDCREATE
 40
2453021.359044525
  9
$TDUCREATE
 40
2453021.359044525
  9
$TDUPDATE
 40
2453024.663799444
  9
$TDUUPDATE
 40
2453024.663799444
  9
$TDINDWG
 40
0.1235432639
  9
$TDUSRTIMER
 40
0.1227863889
  9
$USRTIMER
 70
     1
  9
$ANGBASE
 50
0.0
  9
$ANGDIR
 70
     0
  9
$PDMODE
 70
     0
  9
$PDSIZE
 40
0.0
  9
$PLINEWID
 40
0.0
  9
$SPLFRAME
 70
     0
  9
$SPLINETYPE
 70
     6
  9
$SPLINESEGS
 70
     8
  9
$HANDSEED
  5
1125
  9
$SURFTAB1
 70
     6
  9
$SURFTAB2
 70
     6
  9
$SURFTYPE
 70
     6
  9
$SURFU
 70
     6
  9
$SURFV
 70
     6
  9
$UCSBASE
  2

  9
$UCSNAME
  2

  9
$UCSORG
 10
290.5708516706861
 20
184.7128760969138
 30
0.000000000000038
  9
$UCSXDIR
 10
0.0
 20
-1.0
 30
0.0000000000000002
  9
$UCSYDIR
 10
0.0
 20
-0.0000000000000002
 30
-1.0
  9
$UCSORTHOREF
  2

  9
$UCSORTHOVIEW
 70
     0
  9
$UCSORGTOP
 10
0.0
 20
0.0
 30
0.0
  9
$UCSORGBOTTOM
 10
0.0
 20
0.0
 30
0.0
  9
$UCSORGLEFT
 10
0.0
 20
0.0
 30
0.0
  9
$UCSORGRIGHT
 10
0.0
 20
0.0
 30
0.0
  9
$UCSORGFRONT
 10
0.0
 20
0.0
 30
0.0
  9
$UCSORGBACK
 10
0.0
 20
0.0
 30
0.0
  9
$PUCSBASE
  2

  9
$PUCSNAME
  2

  9
$PUCSORG
 10
0.0
 20
0.0
 30
0.0
  9
$PUCSXDIR
 10
1.0
 20
0.0
 30
0.0
  9
$PUCSYDIR
 10
0.0
 20
1.0
 30
0.0
  9
$PUCSORTHOREF
  2

  9
$PUCSORTHOVIEW
 70
     0
  9
$PUCSORGTOP
 10
0.0
 20
0.0
 30
0.0
  9
$PUCSORGBOTTOM
 10
0.0
 20
0.0
 30
0.0
  9
$PUCSORGLEFT
 10
0.0
 20
0.0
 30
0.0
  9
$PUCSORGRIGHT
 10
0.0
 20
0.0
 30
0.0
  9
$PUCSORGFRONT
 10
0.0
 20
0.0
 30
0.0
  9
$PUCSORGBACK
 10
0.0
 20
0.0
 30
0.0
  9
$USERI1
 70
     0
  9
$USERI2
 70
     0
  9
$USERI3
 70
     0
  9
$USERI4
 70
     0
  9
$USERI5
 70
     0
  9
$USERR1
 40
0.0
  9
$USERR2
 40
0.0
  9
$USERR3
 40
0.0
  9
$USERR4
 40
0.0
  9
$USERR5
 40
0.0
  9
$WORLDVIEW
 70
     1
  9
$SHADEDGE
 70
     3
  9
$SHADEDIF
 70
    70
  9
$TILEMODE
 70
     1
  9
$MAXACTVP
 70
    64
  9
$PINSBASE
 10
0.0
 20
0.0
 30
0.0
  9
$PLIMCHECK
 70
     0
  9
$PEXTMIN
 10
10.00000009257836
 20
9.999999905031586
 30
0.0
  9
$PEXTMAX
 10
410.0000000925782
 20
298.9999999050315
 30
0.0
  9
$PLIMMIN
 10
-0.6488269631991859
 20
2.634989174607843
  9
$PLIMMAX
 10
420.654681763813
 20
300.6828980762912
  9
$UNITMODE
 70
     0
  9
$VISRETAIN
 70
     1
  9
$PLINEGEN
 70
     0
  9
$PSLTSCALE
 70
     1
  9
$TREEDEPTH
 70
  3020
  9
$CMLSTYLE
  2
Standard
  9
$CMLJUST
 70
     0
  9
$CMLSCALE
 40
20.0
  9
$PROXYGRAPHICS
 70
     1
  9
$MEASUREMENT
 70
     1
  9
$CELWEIGHT
370
    -1
  9
$ENDCAPS
280
     0
  9
$JOINSTYLE
280
     0
  9
$LWDISPLAY
290
     0
  9
$INSUNITS
 70
     4
  9
$HYPERLINKBASE
  1

  9
$STYLESHEET
  1

  9
$XEDIT
290
     1
  9
$CEPSNTYPE
380
     0
  9
$PSTYLEMODE
290
     1
  9
$FINGERPRINTGUID
  2
{F09EB1B0-A59E-11D4-812D-0000E8450F02}
  9
$VERSIONGUID
  2
{37360EE7-61BD-4829-BB10-D6B1EAFF1E8B}
  9
$EXTNAMES
290
     1
  9
$PSVPSCALE
 40
0.0
  9
$OLESTARTUP
290
     0
  0
ENDSEC
  0
SECTION
  2
CLASSES
  0
CLASS
  1
ACDBDICTIONARYWDFLT
  2
AcDbDictionaryWithDefault
  3
AutoCAD 2000
 90
        0
280
     0
281
     0
  0
CLASS
  1
ACDBPLACEHOLDER
  2
AcDbPlaceHolder
  3
AutoCAD 2000
 90
        0
280
     0
281
     0
  0
CLASS
  1
LAYOUT
  2
AcDbLayout
  3
AutoCAD 2000
 90
        0
280
     0
281
     0
  0
CLASS
  1
ACME_DOCUMENT
  2
AcMeDbDoc
  3
AcMeServices
 90
        0
280
     0
281
     0
  0
CLASS
  1
ACMESCOPE
  2
AcMeScope
  3
AcMeServices
 90
        0
280
     0
281
     0
  0
CLASS
  1
ACMECOMMANDHISTORY
  2
AcMeCommandHistory
  3
AcMeServices
 90
        0
280
     0
281
     0
  0
CLASS
  1
DICTIONARYVAR
  2
AcDbDictionaryVar
  3
AutoCAD 2000
 90
        0
280
     0
281
     0
  0
CLASS
  1
ACIMSYSVARMAN
  2
AcImSysVarManager
  3
AcMeServices
 90
        0
280
     0
281
     0
  0
CLASS
  1
ACIMREALSYSVAR
  2
AcImRealSysVar
  3
AcMeServices
 90
        0
280
     0
281
     0
  0
CLASS
  1
ACIMINTSYSVAR
  2
AcImIntSysVar
  3
AcMeServices
 90
        0
280
     0
281
     0
  0
CLASS
  1
ACMEDRAWINGMAN
  2
AcMeDrawingMan
  3
AcMeServices
 90
        0
280
     0
281
     0
  0
CLASS
  1
ACMEVIEW
  2
AcMeView
  3
AcMeServices
 90
        0
280
     0
281
     0
  0
CLASS
  1
ACDBENTITYCACHE
  2
AcMeEntityCache
  3
AcMeServices
 90
        0
280
     0
281
     0
  0
CLASS
  1
GSMANAGER
  2
AcMeGSManager
  3
AcMeServices
 90
        0
280
     0
281
     0
  0
CLASS
  1
AmdtInternalReactor
  2
AmdtInternalReactor
  3
AcMeServices
 90
        0
280
     0
281
     0
  0
CLASS
  1
ACMESTATEMGR
  2
AcMeStateMgr
  3
AcMeServices
 90
        0
280
     0
281
     0
  0
CLASS
  1
ACGREFMASTER
  2
AcGrefMaster
  3
AcAttribServices
 90
        0
280
     0
281
     0
  0
CLASS
  1
AM_DRAWING_MGR
  2
AcDmDwgMgr
  3
AcMechDwgViewMgmt
 90
        0
280
     0
281
     0
  0
CLASS
  1
AM_DWG_DOCUMENT
  2
AcDmDwgDocument
  3
AcMechDwgViewMgmt
 90
        0
280
     0
281
     0
  0
CLASS
  1
AM_DWG_SHEET
  2
AcDmSheet
  3
AcMechDwgViewMgmt
 90
        0
280
     0
281
     0
  0
CLASS
  1
AM_VIEWDIMPARMAP
  2
AcDmViewDimParMap
  3
AcMechDwgViewMgmt
 90
        0
280
     0
281
     0
  0
CLASS
  1
AM_DWGMGR_NAME
  2
AcDmDwgMgrName
  3
AcMechDwgViewMgmt
 90
        0
280
     0
281
     0
  0
CLASS
  1
ACME_DATABASE
  2
AcMeDbDatabase
  3
AcMeServices
 90
        0
280
     0
281
     0
  0
CLASS
  1
ACRFINSADJUSTERMGR
  2
AcRfInsAdjusterMgr
  3
AcMeServices
 90
        0
280
     0
281
     0
  0
CLASS
  1
ACGREFMASTER
  2
AcGrefacadMaster
  3
AcGrefServices
 90
        0
280
     0
281
     0
  0
CLASS
  1
AMDTMENUSTATEMGR
  2
AmdtMenuStateMgr
  3
McadcomServices
 90
        0
280
     0
281
     0
  0
CLASS
  1
AMDTMCOMMENUSTATE
  2
AmdtMcomMenuState
  3
McadcomServices
 90
        0
280
     0
281
     0
  0
CLASS
  1
AMIMASTER
  2
AmiMaster
  3
AmiServices
 90
        0
280
     0
281
     0
  0
CLASS
  1
AMGSETTINGSOBJ
  2
AmgSettingsObj
  3
"AcadM|Product Description: AutoCAD Mechanical 2000|Company: Autodesk"
 90
        0
280
     0
281
     0
  0
CLASS
  1
ASAPP
  2
AcAsAppObject
  3
AutoSurfServices
 90
        0
280
     0
281
     0
  0
CLASS
  1
IM_STATIC_MAN
  2
AcImStaticVarManager
  3
AcMeServices
 90
        0
280
     0
281
     0
  0
CLASS
  1
ACIMSTRSYSVAR
  2
AcImStrSysVar
  3
AcMeServices
 90
        0
280
     0
281
     0
  0
CLASS
  1
ACIMDBLSTATICVAR
  2
AcImDblStaticVar
  3
AcMeServices
 90
        0
280
     0
281
     0
  0
CLASS
  1
ACIMSTRSTATICVAR
  2
AcImStrStaticVar
  3
AcMeServices
 90
        0
280
     0
281
     0
  0
CLASS
  1
ACIMINTSTATICVAR
  2
AcImIntStaticVar
  3
AcMeServices
 90
        0
280
     0
281
     0
  0
CLASS
  1
ACASGREFMASTER
  2
AcAsGrefMaster
  3
AutoSurfResolverServices
 90
        0
280
     0
281
     0
  0
CLASS
  1
ACADGREFMODULE
  2
AcAdGrefModule
  3
AdGrefServices
 90
        0
280
     0
281
     0
  0
CLASS
  1
AmdtMApiSurfModule
  2
AmdtMApiSurfModule
  3
MApiSurfServices
 90
    32768
280
     0
281
     0
  0
CLASS
  1
MAPIAMMOUDLE
  2
MApiAmModule
  3
MApiAmServices
 90
        0
280
     0
281
     0
  0
CLASS
  1
AMDTADMENUSTATE
  2
AmdtAdMenuState
  3
DesignerServices
 90
        0
280
     0
281
     0
  0
CLASS
  1
ADAPPL
  2
AcAdAppl
  3
DesignerServices
 90
        0
280
     0
281
     0
  0
CLASS
  1
DEPMGR
  2
AcAdDepMgr
  3
DesignerServices
 90
        0
280
     0
281
     0
  0
CLASS
  1
PARAMMGR
  2
AcAdParamMgr
  3
DesignerServices
 90
        0
280
     0
281
     0
  0
CLASS
  1
PARAMSCOPE
  2
AcAdParamScope
  3
DesignerServices
 90
        0
280
     0
281
     0
  0
CLASS
  1
NAMEDAPPL
  2
AcAdNamedAppl
  3
DesignerServices
 90
        0
280
     0
281
     0
  0
CLASS
  1
ADHNTMPLT
  2
AdHoleNoteTemplateMgr
  3
DesignerServices
 90
        0
280
     0
281
     0
  0
CLASS
  1
AM_HNTEMPLATE_MGR_NAME
  2
AdHoleNoteTemplateMgrName
  3
DesignerServices
 90
        0
280
     0
281
     0
  0
CLASS
  1
AMDTDMMENUSTATE
  2
AmdtDmMenuState
  3
AcMechDwgViewMgmt
 90
        0
280
     0
281
     0
  0
CLASS
  1
MAPIADMODULE
  2
MApiAdModule
  3
MApiAdServices
 90
        0
280
     0
281
     0
  0
CLASS
  1
AMDTAMMENUSTATE
  2
AmdtAmMenuState
  3
DesignerAssemblies
 90
        0
280
     0
281
     0
  0
CLASS
  1
ACAMPROJECT
  2
AcAmProject
  3
DesignerAssemblies
 90
        0
280
     0
281
     0
  0
CLASS
  1
ACAMGRCOMPDEF
  2
AcAmGrCompDef
  3
DesignerAssemblies
 90
        0
280
     0
281
     0
  0
CLASS
  1
ACCMCONTEXT
  2
AcCmContext
  3
DesignerAssemblies
 90
        0
280
     0
281
     0
  0
CLASS
  1
ACAMCOMPDEF
  2
AcAmCompDef
  3
DesignerAssemblies
 90
        0
280
     0
281
     0
  0
CLASS
  1
ACAMCOMPDEFMGR
  2
AcAmCompDefMgr
  3
DesignerAssemblies
 90
        0
280
     0
281
     0
  0
CLASS
  1
AMCONTEXTMGR
  2
AcAmContextMgr
  3
DesignerAssemblies
 90
        0
280
     0
281
     0
  0
CLASS
  1
ACAMCONTEXTMODELER
  2
AcAmContextModeler
  3
DesignerAssemblies
 90
        0
280
     0
281
     0
  0
CLASS
  1
ACMDATADICTIONARY
  2
AcmDataDictionary
  3
"AcmSymBB|Product Description: AutoCAD Mechanical 2000|Company: Autodesk"
 90
        0
280
     0
281
     0
  0
CLASS
  1
ACMDATAENTRYBLOCK
  2
AcmDataEntryBlock
  3
"AcmSymBB|Product Description: AutoCAD Mechanical 2000|Company: Autodesk"
 90
        0
280
     0
281
     0
  0
CLASS
  1
CATALOGSTATE
  2
AcAmCatalogState
  3
DesignerAssemblies
 90
        0
280
     0
281
     0
  0
CLASS
  1
ACAMGRCOMPDEFSET
  2
AcAmGrCompDefSet
  3
DesignerAssemblies
 90
        0
280
     0
281
     0
  0
CLASS
  1
AMDTBROWSERDBTAB
  2
AmdtBrowserDbTab
  3
McadcomServices
 90
        0
280
     0
281
     0
  0
CLASS
  1
CBROWSERAPPOBJECT
  2
CBrowserAppObject
  3
McadcomServices
 90
        0
280
     0
281
     0
  0
CLASS
  1
DM_PLACEHOLDER
  2
AcDmSelsetPlaceholder
  3
AcMechDwgViewMgmt
 90
        0
280
     0
281
     0
  0
CLASS
  1
AMGOBJPROPCFG
  2
AmgObjPropCfg
  3
"AmgLay|Product Description: AutoCAD Mechanical 2000|Company: Autodesk"
 90
        1
280
     0
281
     0
  0
CLASS
  1
LAYER_INDEX
  2
AcDbLayerIndex
  3
AutoCAD 2000
 90
        0
280
     0
281
     0
  0
CLASS
  1
IDBUFFER
  2
AcDbIdBuffer
  3
AutoCAD 2000
 90
        0
280
     0
281
     0
  0
CLASS
  1
ACAMGFILTERDAT
  2
AcAmgFilterDat
  3
"AcadM|Product Description: AutoCAD Mechanical 2000|Company: Autodesk"
 90
        0
280
     0
281
     0
  0
CLASS
  1
ACMSTANDARDISO
  2
AcmStandardISO
  3
"Amdt_StdImp|Product Description: AutoCAD Mechanical 2000|Company: Autodesk"
 90
    32768
280
     0
281
     0
  0
CLASS
  1
AMDTEDGESTANDARDISO
  2
AmdtEdgeStdISO
  3
"Amdt_StdImp|Product Description: AutoCAD Mechanical 2000|Company: Autodesk"
 90
    32768
280
     0
281
     0
  0
CLASS
  1
ACMSURFSTANDARDISO
  2
AcmSurfTextStdISO
  3
"Amdt_StdImp|Product Description: AutoCAD Mechanical 2000|Company: Autodesk"
 90
    32768
280
     0
281
     0
  0
CLASS
  1
ACMFCFSTANDARDISO
  2
AcmFCFStdISO
  3
"Amdt_StdImp|Product Description: AutoCAD Mechanical 2000|Company: Autodesk"
 90
    32768
280
     0
281
     0
  0
CLASS
  1
ACMWELDSTANDARDISO
  2
AcmWeldingStdISO
  3
"Amdt_StdImp|Product Description: AutoCAD Mechanical 2000|Company: Autodesk"
 90
    32768
280
     0
281
     0
  0
CLASS
  1
ACMIDSTANDARDISO
  2
AcmIdStdISO
  3
"Amdt_StdImp|Product Description: AutoCAD Mechanical 2000|Company: Autodesk"
 90
    32768
280
     0
281
     0
  0
CLASS
  1
ACMDATUMSTANDARDISO
  2
AcmDatumStdISO
  3
"Amdt_StdImp|Product Description: AutoCAD Mechanical 2000|Company: Autodesk"
 90
    32768
280
     0
281
     0
  0
CLASS
  1
ACMBOMSTANDARDISO
  2
AcmBOMStdISO
  3
"Amdt_StdImp|Product Description: AutoCAD Mechanical 2000|Company: Autodesk"
 90
    32768
280
     0
281
     0
  0
CLASS
  1
ACMDETAILSTANDARDISO
  2
AmdtDetailSymStdISO
  3
"Amdt_StdImp|Product Description: AutoCAD Mechanical 2000|Company: Autodesk"
 90
    32768
280
     0
281
     0
  0
CLASS
  1
ACMSECTIONSTANDARDISO
  2
AmdtSectionSymStdISO
  3
"Amdt_StdImp|Product Description: AutoCAD Mechanical 2000|Company: Autodesk"
 90
    32768
280
     0
281
     0
  0
CLASS
  1
ACMCENTERLINESTANDARDISO
  2
AmdtCenterLineStdISO
  3
"Amdt_StdImp|Product Description: AutoCAD Mechanical 2000|Company: Autodesk"
 90
    32768
280
     0
281
     0
  0
CLASS
  1
ACMTHREADLINESTANDARDISO
  2
AmdtThreadLineStdISO
  3
"Amdt_StdImp|Product Description: AutoCAD Mechanical 2000|Company: Autodesk"
 90
    32768
280
     0
281
     0
  0
CLASS
  1
"AcAmgLayStd"
  2
AcAmgLayStd
  3
"AcAmgLayStd|Product Description: AutoCAD Mechanical 2000|Company: Autodesk"
 90
    32768
280
     0
281
     0
  0
CLASS
  1
"AcAmgDimStd"
  2
AcAmgDimStd
  3
"AcAmgDimStd|Product Description: AutoCAD Mechanical 2000|Company: Autodesk"
 90
    32768
280
     0
281
     0
  0
CLASS
  1
AcAmgTitleStd
  2
AcAmgTitleStd
  3
"TITLEAPP"
 90
    32768
280
     0
281
     0
  0
CLASS
  1
PLOTSETTINGS
  2
AcDbPlotSettings
  3
AutoCAD 2000
 90
        0
280
     0
281
     0
  0
CLASS
  1
ACAMEXTERNALCOMPDEF
  2
AcAmExternalCompDef
  3
DesignerAssemblies
 90
    32768
280
     0
281
     0
  0
CLASS
  1
ACCMBODY
  2
AcCmBody
  3
DesignerAssemblies
 90
    32768
280
     0
281
     0
  0
CLASS
  1
ACAMCOMPENT
  2
AcAmCompEnt
  3
DesignerAssemblies
 90
    32768
280
     0
281
     1
  0
CLASS
  1
ACAMCOMPFEEDBACK
  2
AcAmCompFeedback
  3
DesignerAssemblies
 90
    32768
280
     0
281
     0
  0
CLASS
  1
ACAMCOMP
  2
AcAmComp
  3
DesignerAssemblies
 90
    32768
280
     0
281
     0
  0
CLASS
  1
ACAMCOMPENTCLONE
  2
AcAmCompEntClone
  3
DesignerAssemblies
 90
    32768
280
     0
281
     1
  0
CLASS
  1
ACAMCLONEREACTOR
  2
AcAmGrCompCloneReactor
  3
DesignerAssemblies
 90
    32768
280
     0
281
     0
  0
CLASS
  1
EDGEID
  2
AcAdEdgeId
  3
DesignerServices
 90
    32768
280
     0
281
     0
  0
CLASS
  1
ACADPARTCIRCEDGRES
  2
AcAdPartCircEdgRes
  3
AdGrefServices
 90
    32768
280
     0
281
     0
  0
CLASS
  1
ACRFINSADJ
  2
AcRfInsAdjuster
  3
AcMeServices
 90
    32768
280
     0
281
     0
  0
CLASS
  1
CIRREFID
  2
AcAdCircleRefId
  3
DesignerServices
 90
    32768
280
     0
281
     0
  0
CLASS
  1
ACMEAXIS
  2
AcImAxisDisplay
  3
AcMeServices
 90
    32768
280
     0
281
     1
  0
CLASS
  1
FACEID
  2
AcAdFaceId
  3
DesignerServices
 90
    32768
280
     0
281
     0
  0
CLASS
  1
DEPEDGESECONDARYDEPID
  2
AcAdDepEdgeSecondaryDepId
  3
DesignerServices
 90
    32768
280
     0
281
     0
  0
CLASS
  1
ACADPARTCYLINDERFACERES
  2
AcAdPartCylinderFaceRes
  3
AdGrefServices
 90
    32768
280
     0
281
     0
  0
CLASS
  1
ACADPARTPLANARFACERES
  2
AcAdPartPlanarFaceRes
  3
AdGrefServices
 90
    32768
280
     0
281
     0
  0
CLASS
  1
ACMELINEARARROW
  2
AcImLinearArrowDisplay
  3
AcMeServices
 90
    32768
280
     0
281
     1
  0
CLASS
  1
ACAMEXPR
  2
AcAmExpr
  3
DesignerAssemblies
 90
    32768
280
     0
281
     0
  0
CLASS
  1
ACCMDISTPLPL
  2
AcCmDistPlPl
  3
DesignerAssemblies
 90
    32768
280
     0
281
     0
  0
CLASS
  1
ACCMCONSTREACTOR
  2
AcCmConstraintReactor
  3
DesignerAssemblies
 90
    32768
280
     0
281
     0
  0
CLASS
  1
ACCMDISTLNLN
  2
AcCmDistLnLn
  3
DesignerAssemblies
 90
    32768
280
     0
281
     0
  0
CLASS
  1
ACMEPOINT
  2
AcImPointDisplay
  3
AcMeServices
 90
    32768
280
     0
281
     1
  0
CLASS
  1
ACAMXREFCONTEXTMODELER
  2
AcAmXrefContextModeler
  3
DesignerAssemblies
 90
    32768
280
     0
281
     0
  0
CLASS
  1
ACCMINSERTPLPL
  2
AcCmInsertPlPl
  3
AcCmServices
 90
    32768
280
     0
281
     0
  0
CLASS
  1
ACAMGRBLOCKRECORD
  2
AcAmGrBlockRecord
  3
DesignerAssemblies
 90
    32768
280
     0
281
     0
  0
CLASS
  1
ACAMVIEWREACTOR
  2
AcAmViewReactor
  3
DesignerAssemblies
 90
    32768
280
     0
281
     0
  0
CLASS
  1
AMVIEW
  2
AcAmView
  3
DesignerAssemblies
 90
    32768
280
     0
281
     0
  0
CLASS
  1
ACAMVIEWCONTEXT
  2
AcAmViewContext
  3
DesignerAssemblies
 90
    32768
280
     0
281
     0
  0
CLASS
  1
ACAMCOMPVIEWREACTOR
  2
AcAmGrCompViewReactor
  3
DesignerAssemblies
 90
    32768
280
     0
281
     0
  0
CLASS
  1
ACAMCOMPENTVIEW
  2
AcAmCompEntView
  3
DesignerAssemblies
 90
    32768
280
     0
281
     1
  0
CLASS
  1
ACAMVIEWENTITYFILTER
  2
AcAmViewEntityFilter
  3
DesignerAssemblies
 90
    32768
280
     0
281
     0
  0
CLASS
  1
AM_ABS_PLANE
  2
AcDmAbsPlnDef
  3
AcMechDwgViewMgmt
 90
    32768
280
     0
281
     0
  0
CLASS
  1
AM_ABS_AXIS
  2
AcDmAbsAxisDef
  3
AcMechDwgViewMgmt
 90
    32768
280
     0
281
     0
  0
CLASS
  1
AM_BASE_VIEW_ORIENT
  2
AcDmBaseViewOr
  3
AcMechDwgViewMgmt
 90
    32768
280
     0
281
     0
  0
CLASS
  1
AM_DWG_VIEWPORT
  2
AcDmViewport
  3
AcMechDwgViewMgmt
 90
    32768
280
     0
281
     0
  0
CLASS
  1
AM_VIEW_DISPLAY
  2
AcDmDwgViewDisplay
  3
AcMechDwgViewMgmt
 90
    32768
280
     0
281
     0
  0
CLASS
  1
AM_CLDFLTS
  2
AcDmClDflts
  3
AcMechDwgViewMgmt
 90
    32768
280
     0
281
     0
  0
CLASS
  1
AM_BASE_VIEW
  2
AcDmBaseView
  3
AcMechDwgViewMgmt
 90
    32768
280
     0
281
     0
  0
CLASS
  1
ACMEPLINE
  2
AcImPlineDisplay
  3
AcMeServices
 90
    32768
280
     0
281
     1
  0
CLASS
  1
ACDMPARTVIEWDATA
  2
AcDmPartViewData
  3
AcMechDwgViewMgmt
 90
    32768
280
     0
281
     0
  0
CLASS
  1
ACDMDISPLAYATTRIBS
  2
AcDmDisplayAttribs
  3
AcMechDwgViewMgmt
 90
    32768
280
     0
281
     0
  0
CLASS
  1
ACDMBODYINSTANCEDATA
  2
AcDmBodyInstanceData
  3
AcMechDwgViewMgmt
 90
    32768
280
     0
281
     0
  0
CLASS
  1
ACDMVWEDSPLINE
  2
AcDmViewEdgeSpline
  3
AcMechDwgViewMgmt
 90
    32768
280
     0
281
     1
  0
CLASS
  1
ACDMVWEDLINE
  2
AcDmViewEdgeLine
  3
AcMechDwgViewMgmt
 90
    32768
280
     0
281
     1
  0
CLASS
  1
ACDMVWEDELLIPSE
  2
AcDmViewEdgeEllipse
  3
AcMechDwgViewMgmt
 90
    32768
280
     0
281
     1
  0
CLASS
  1
ACDMVWEDARC
  2
AcDmViewEdgeArc
  3
AcMechDwgViewMgmt
 90
    32768
280
     0
281
     1
  0
CLASS
  1
ACDMVWEDCIRC
  2
AcDmViewEdgeCircle
  3
AcMechDwgViewMgmt
 90
    32768
280
     0
281
     1
  0
CLASS
  1
AM_ADLINCTRLINE
  2
AcAdLineCl
  3
DesignerServices
 90
    32768
280
     0
281
     0
  0
CLASS
  1
AM_ADCIRCTRLINE
  2
AcAdBullsEyeCl
  3
DesignerServices
 90
    32768
280
     0
281
     0
  0
CLASS
  1
AD_LINETAPH
  2
AcAdTapHoleLineDisp
  3
DesignerServices
 90
    32768
280
     0
281
     0
  0
CLASS
  1
AD_CIRCTAPH
  2
AcAdTapHoleCircDisp
  3
DesignerServices
 90
    32768
280
     0
281
     0
  0
CLASS
  1
AM_ORTHO_VIEW_ORIENT
  2
AcDmOrthoViewOr
  3
AcMechDwgViewMgmt
 90
    32768
280
     0
281
     0
  0
CLASS
  1
AM_ORTHO_VIEW
  2
AcDmOrthoView
  3
AcMechDwgViewMgmt
 90
    32768
280
     0
281
     0
  0
CLASS
  1
ACADPARTLINEDGRES
  2
AcAdPartLinEdgRes
  3
AdGrefServices
 90
    32768
280
     0
281
     0
  0
CLASS
  1
CNRREFID
  2
AcAdCornerId
  3
DesignerServices
 90
    32768
280
     0
281
     0
  0
CLASS
  1
ACADPARTPOINTRES
  2
AcAdPartPointRes
  3
AdGrefServices
 90
    32768
280
     0
281
     0
  0
CLASS
  1
AM_VIEWDIMLINEAR
  2
AcDmViewDimLinear
  3
AcMechDwgViewMgmt
 90
    32768
280
     0
281
     0
  0
CLASS
  1
ACDBLINERES
  2
AcDbLineRes
  3
AcGrefServices
 90
    32768
280
     0
281
     0
  0
CLASS
  1
ACRFDMINSADJ
  2
AcRfDMInsAdjuster
  3
AcMechDwgViewMgmt
 90
    32768
280
     0
281
     0
  0
CLASS
  1
ACDMVIEWGEOM
  2
AcDmViewGeometry
  3
AcMechDwgViewMgmt
 90
    32768
280
     0
281
     1
  0
CLASS
  1
SILEDGEID
  2
AcAdSilhouetteEdgeId
  3
DesignerServices
 90
    32768
280
     0
281
     0
  0
CLASS
  1
ACADPARTCONICALFACERES
  2
AcAdPartConicalFaceRes
  3
AdGrefServices
 90
    32768
280
     0
281
     0
  0
CLASS
  1
ACDMGREFEDIT
  2
AcDmViewEntityGeomrefEdit
  3
AcMechDwgViewMgmt
 90
    32768
280
     0
281
     0
  0
CLASS
  1
ACDMVIEWLINEDGERES
  2
AcDmViewLinEdgeRes
  3
AcMechDwgViewMgmt
 90
    32768
280
     0
281
     0
  0
CLASS
  1
ACDBCIRCARCRES
  2
AcDbCircArcRes
  3
AcGrefServices
 90
    32768
280
     0
281
     0
  0
CLASS
  1
AMDTFORMULAUPDATEDISPATCHER
  2
AmdtFormulaUpdateDispatcher
  3
AcMeServices
 90
        0
280
     0
281
     0
  0
ENDSEC
  0
SECTION
  2
TABLES
  0
TABLE
  2
VPORT
  5
8
330
0
100
AcDbSymbolTable
 70
     3
  0
VPORT
  5
1124
330
8
100
AcDbSymbolTableRecord
100
AcDbViewportTableRecord
  2
*Active
 70
     0
 10
0.0
 20
0.0
 11
1.0
 21
1.0
 12
0.0
 22
0.0
 13
0.0
 23
0.0
 14
10.0
 24
10.0
 15
10.0
 25
10.0
 16
-195.9532807873106
 26
-239.0801657810998
 36
77.31972753343644
 17
290.5708516706861
 27
215.7455242722552
 37
-5.331488759601239
 40
161.6013970932663
 41
1.32037037037037
 42
50.0
 43
0.0
 44
0.0
 50
0.0
 51
180.7481008977094
 71
     0
 72
   100
 73
     1
 74
     3
 75
     0
 76
     0
 77
     0
 78
     0
281
     4
 65
     0
110
0.0
120
0.0
130
0.0
111
1.0
121
0.0
131
0.0
112
0.0
122
1.0
132
0.0
 79
     0
146
0.0
  0
ENDTAB
  0
TABLE
  2
LTYPE
  5
5
330
0
100
AcDbSymbolTable
 70
    69
  0
LTYPE
  5
14
330
5
100
AcDbSymbolTableRecord
100
AcDbLinetypeTableRecord
  2
ByBlock
 70
     0
  3

 72
    65
 73
     0
 40
0.0
  0
LTYPE
  5
15
330
5
100
AcDbSymbolTableRecord
100
AcDbLinetypeTableRecord
  2
ByLayer
 70
     0
  3

 72
    65
 73
     0
 40
0.0
  0
LTYPE
  5
16
330
5
100
AcDbSymbolTableRecord
100
AcDbLinetypeTableRecord
  2
Continuous
 70
     0
  3
Solid line
 72
    65
 73
     0
 40
0.0
  0
LTYPE
  5
4D
330
5
100
AcDbSymbolTableRecord
100
AcDbLinetypeTableRecord
  2
HIDDEN
 70
     0
  3
Hidden __ __ __ __ __ __ __ __ __ __ __ __ __ _
 72
    65
 73
     2
 40
9.524999999999996
 49
6.349999999999998
 74
     0
 49
-3.174999999999998
 74
     0
  0
LTYPE
  5
4E
330
5
100
AcDbSymbolTableRecord
100
AcDbLinetypeTableRecord
  2
PHANTOM2
 70
     0
  3
Phantom (.5x) ___ _ _ ___ _ _ ___ _ _ ___ _ _
 72
    65
 73
     6
 40
31.75
 49
15.875
 74
     0
 49
-3.174999999999998
 74
     0
 49
3.174999999999998
 74
     0
 49
-3.174999999999998
 74
     0
 49
3.174999999999998
 74
     0
 49
-3.174999999999998
 74
     0
  0
LTYPE
  5
4F
330
5
100
AcDbSymbolTableRecord
100
AcDbLinetypeTableRecord
  2
CENTER
 70
     0
  3
Center ____ _ ____ _ ____ _ ____ _ ____ _ ____
 72
    65
 73
     4
 40
50.8
 49
31.75
 74
     0
 49
-6.349999999999998
 74
     0
 49
6.349999999999998
 74
     0
 49
-6.349999999999998
 74
     0
  0
LTYPE
  5
F9
330
5
100
AcDbSymbolTableRecord
100
AcDbLinetypeTableRecord
  2
AM_ISO02W050
 70
     0
  3
__ __ __ __ __ __ __ __ __ __ __ __ __ __ __
 72
    65
 73
     2
 40
7.5
 49
6.0
 74
     0
 49
-1.5
 74
     0
  0
LTYPE
  5
FA
330
5
100
AcDbSymbolTableRecord
100
AcDbLinetypeTableRecord
  2
AM_ISO08W050
 70
     0
  3
____ . ____ . ____ . ____ . ____ . ____ . ____
 72
    65
 73
     4
 40
18.0
 49
12.0
 74
     0
 49
-1.5
 74
     0
 49
3.0
 74
     0
 49
-1.5
 74
     0
  0
LTYPE
  5
FB
330
5
100
AcDbSymbolTableRecord
100
AcDbLinetypeTableRecord
  2
AM_ISO09W050
 70
     0
  3
_____ . . _____ . . _____ . . ____ .. ____
 72
    65
 73
     6
 40
22.5
 49
12.0
 74
     0
 49
-1.5
 74
     0
 49
3.0
 74
     0
 49
-1.5
 74
     0
 49
3.0
 74
     0
 49
-1.5
 74
     0
  0
LTYPE
  5
FC
330
5
100
AcDbSymbolTableRecord
100
AcDbLinetypeTableRecord
  2
Amconstr
 70
     0
  3
_______________________
 72
    65
 73
     2
 40
9999.0
 49
9999.0
 74
     0
 49
0.0
 74
     0
  0
LTYPE
  5
FD
330
5
100
AcDbSymbolTableRecord
100
AcDbLinetypeTableRecord
  2
AM_ISO08W050x2
 70
     0
  3
__ . __ . __ . __ . __ . __
 72
    65
 73
     4
 40
9.0
 49
6.0
 74
     0
 49
-0.75
 74
     0
 49
1.5
 74
     0
 49
-0.75
 74
     0
  0
LTYPE
  5
FE
330
5
100
AcDbSymbolTableRecord
100
AcDbLinetypeTableRecord
  2
AM_ISO02W050x2
 70
     0
  3
 _ _ _ _ _ _ _ _ _ _ _ _
 72
    65
 73
     2
 40
3.75
 49
3.0
 74
     0
 49
-0.75
 74
     0
  0
LTYPE
  5
101
330
5
100
AcDbSymbolTableRecord
100
AcDbLinetypeTableRecord
  2
Amzigzag
 70
     0
  3
/\/-/\/-/\/-/\/-/\/-/\/
 72
    65
 73
     2
 40
11.00009999999999
 49
0.0001
 74
     4
 75
   135
340
100
 46
0.04
 50
0.0
 44
0.0
 45
0.0
 49
-11.0
 74
     0
  0
LTYPE
  5
14A
330
5
100
AcDbSymbolTableRecord
100
AcDbLinetypeTableRecord
  2
ACISOWELD
 70
     0
  3
_ _ _ _ _
 72
    65
 73
     2
 40
2.0
 49
2.0
 74
     0
 49
-1.0
 74
     0
  0
LTYPE
  5
14B
330
5
100
AcDbSymbolTableRecord
100
AcDbLinetypeTableRecord
  2
ACISOTGB
 70
     0
  3
__ . . __ . .
 72
    65
 73
     6
 40
9.0
 49
4.0
 74
     0
 49
-1.0
 74
     0
 49
1.0
 74
     0
 49
-1.0
 74
     0
 49
1.0
 74
     0
 49
-1.0
 74
     0
  0
LTYPE
  5
14C
330
5
100
AcDbSymbolTableRecord
100
AcDbLinetypeTableRecord
  2
ACISOTGL
 70
     0
  3
_ _ _ _ _
 72
    65
 73
     2
 40
3.0
 49
2.0
 74
     0
 49
-1.0
 74
     0
  0
LTYPE
  5
2D1
330
5
100
AcDbSymbolTableRecord
100
AcDbLinetypeTableRecord
  2
ASULTYPE
 70
     0
  3
Solid line
 72
    65
 73
     2
 40
3.0
 49
2.5
 74
     0
 49
0.5
 74
     0
  0
LTYPE
  5
2D2
330
5
100
AcDbSymbolTableRecord
100
AcDbLinetypeTableRecord
  2
ASVLTYPE
 70
     0
  3
__ __ __ __ __ __ __ __ __ __ __ __ __ __ __ __ __ __ __ __ __
 72
    65
 73
     2
 40
0.75
 49
0.5
 74
     0
 49
-0.25
 74
     0
  0
LTYPE
  5
B8F
330
5
100
AcDbSymbolTableRecord
100
AcDbLinetypeTableRecord
  2
602-01|AM_ISO02W050
 70
    48
  3
__ __ __ __ __ __ __ __ __ __ __ __ __ __ __
 72
    65
 73
     2
 40
7.5
 49
6.0
 74
     0
 49
-1.5
 74
     0
  0
LTYPE
  5
B90
330
5
100
AcDbSymbolTableRecord
100
AcDbLinetypeTableRecord
  2
602-01|AM_ISO08W050
 70
    48
  3
____ . ____ . ____ . ____ . ____ . ____ . ____
 72
    65
 73
     4
 40
18.0
 49
12.0
 74
     0
 49
-1.5
 74
     0
 49
3.0
 74
     0
 49
-1.5
 74
     0
  0
LTYPE
  5
FD5
330
5
100
AcDbSymbolTableRecord
100
AcDbLinetypeTableRecord
  2
602-02|AM_ISO02W050
 70
    48
  3
__ __ __ __ __ __ __ __ __ __ __ __ __ __ __
 72
    65
 73
     2
 40
7.5
 49
6.0
 74
     0
 49
-1.5
 74
     0
  0
LTYPE
  5
FD6
330
5
100
AcDbSymbolTableRecord
100
AcDbLinetypeTableRecord
  2
602-02|AM_ISO08W050
 70
    48
  3
____ . ____ . ____ . ____ . ____ . ____ . ____
 72
    65
 73
     4
 40
18.0
 49
12.0
 74
     0
 49
-1.5
 74
     0
 49
3.0
 74
     0
 49
-1.5
 74
     0
  0
ENDTAB
  0
TABLE
  2
LAYER
  5
2
330
0
100
AcDbSymbolTable
 70
    41
  0
LAYER
  5
10
330
2
100
AcDbSymbolTableRecord
100
AcDbLayerTableRecord
  2
0
 70
     0
 62
     7
  6
Continuous
370
    -3
390
F
  0
LAYER
  5
10A
330
2
100
AcDbSymbolTableRecord
100
AcDbLayerTableRecord
  2
Unt
 70
     0
 62
     3
  6
Continuous
370
    -3
390
F
  0
LAYER
  5
10C
330
2
100
AcDbSymbolTableRecord
100
AcDbLayerTableRecord
  2
Text
 70
     0
 62
     2
  6
Continuous
370
    -3
390
F
  0
LAYER
  5
2DF
330
2
100
AcDbSymbolTableRecord
100
AcDbLayerTableRecord
  2
Dims
 70
     0
 62
     2
  6
Continuous
370
    -3
390
F
  0
LAYER
  5
340
330
2
100
AcDbSymbolTableRecord
100
AcDbLayerTableRecord
  2
602-01|Unt
 70
    48
 62
     3
  6
Continuous
370
    -3
390
F
  0
LAYER
  5
341
330
2
100
AcDbSymbolTableRecord
100
AcDbLayerTableRecord
  2
602-01|Text
 70
    48
 62
     2
  6
Continuous
370
    -3
390
F
  0
LAYER
  5
342
330
2
100
AcDbSymbolTableRecord
100
AcDbLayerTableRecord
  2
602-01|Dims
 70
    48
 62
     2
  6
Continuous
370
    -3
390
F
  0
LAYER
  5
343
330
2
100
AcDbSymbolTableRecord
100
AcDbLayerTableRecord
  2
Defpoints
 70
     0
 62
    -7
  6
Continuous
290
     0
370
    -3
390
F
  0
LAYER
  5
344
330
2
100
AcDbSymbolTableRecord
100
AcDbLayerTableRecord
  2
602-01|AM_5
 70
    48
 62
     3
  6
Continuous
370
    25
390
F
  0
LAYER
  5
345
330
2
100
AcDbSymbolTableRecord
100
AcDbLayerTableRecord
  2
602-01|AM_WORK
 70
    48
 62
     7
  6
Continuous
370
    -3
390
F
  0
LAYER
  5
35A
330
2
100
AcDbSymbolTableRecord
100
AcDbLayerTableRecord
  2
602-02|Unt
 70
    48
 62
     3
  6
Continuous
370
    -3
390
F
  0
LAYER
  5
35B
330
2
100
AcDbSymbolTableRecord
100
AcDbLayerTableRecord
  2
602-02|Text
 70
    48
 62
     2
  6
Continuous
370
    -3
390
F
  0
LAYER
  5
35C
330
2
100
AcDbSymbolTableRecord
100
AcDbLayerTableRecord
  2
602-02|Dims
 70
    48
 62
     2
  6
Continuous
370
    -3
390
F
  0
LAYER
  5
35D
330
2
100
AcDbSymbolTableRecord
100
AcDbLayerTableRecord
  2
602-02|AM_5
 70
    48
 62
     3
  6
Continuous
370
    25
390
F
  0
LAYER
  5
35E
330
2
100
AcDbSymbolTableRecord
100
AcDbLayerTableRecord
  2
602-02|AM_WORK
 70
    48
 62
     7
  6
Continuous
370
    -3
390
F
  0
LAYER
  5
59D
330
2
100
AcDbSymbolTableRecord
100
AcDbLayerTableRecord
  2
AM_FR
 70
     5
 62
     7
  6
Continuous
370
    -3
390
F
  0
LAYER
  5
5E5
330
2
100
AcDbSymbolTableRecord
100
AcDbLayerTableRecord
  2
M6X12SHCS|UNTITLED
 70
    48
 62
     3
  6
Continuous
370
    -3
390
F
  0
LAYER
  5
5E6
330
2
100
AcDbSymbolTableRecord
100
AcDbLayerTableRecord
  2
M6X12SHCS|DESIGNSPACE_DATABASE
 70
    48
 62
     7
  6
Continuous
370
    -3
390
F
  0
LAYER
  5
5E7
330
2
100
AcDbSymbolTableRecord
100
AcDbLayerTableRecord
  2
M6X12SHCS|AM_WORK
 70
    48
 62
     7
  6
Continuous
370
    -3
390
F
  0
LAYER
  5
77A
330
2
100
AcDbSymbolTableRecord
100
AcDbLayerTableRecord
  2
AM_VIEWS
 70
     0
 62
    -1
  6
Continuous
290
     0
370
    25
390
F
  0
LAYER
  5
77F
330
2
100
AcDbSymbolTableRecord
100
AcDbLayerTableRecord
  2
AM_VIS
 70
     2
 62
     7
  6
Continuous
370
    50
390
F
  0
LAYER
  5
780
330
2
100
AcDbSymbolTableRecord
100
AcDbLayerTableRecord
  2
AM_HID
 70
     2
 62
     7
  6
AM_ISO02W050
370
    25
390
F
  0
LAYER
  5
85F
330
2
100
AcDbSymbolTableRecord
100
AcDbLayerTableRecord
  2
AM_7
 70
     0
 62
     4
  6
AM_ISO08W050
370
    25
390
F
  0
LAYER
  5
877
330
2
100
AcDbSymbolTableRecord
100
AcDbLayerTableRecord
  2
AM_4
 70
     0
 62
     3
  6
Continuous
370
    25
390
F
  0
LAYER
  5
98B
330
2
100
AcDbSymbolTableRecord
100
AcDbLayerTableRecord
  2
AM_REFDIM
 70
     0
 62
     4
  6
Continuous
370
    25
390
F
  0
LAYER
  5
B88
330
2
100
AcDbSymbolTableRecord
100
AcDbLayerTableRecord
  2
602-01|AM_VIEWS
 70
    48
 62
    -1
  6
Continuous
290
     0
370
    25
390
F
  0
LAYER
  5
B89
330
2
100
AcDbSymbolTableRecord
100
AcDbLayerTableRecord
  2
602-01|AM_VIS
 70
    51
 62
     7
  6
Continuous
370
    50
390
F
  0
LAYER
  5
B8A
330
2
100
AcDbSymbolTableRecord
100
AcDbLayerTableRecord
  2
602-01|AM_HID
 70
    51
 62
     7
  6
602-01|AM_ISO02W050
370
    25
390
F
  0
LAYER
  5
B8B
330
2
100
AcDbSymbolTableRecord
100
AcDbLayerTableRecord
  2
602-01|AM_7
 70
    48
 62
     4
  6
602-01|AM_ISO08W050
370
    25
390
F
  0
LAYER
  5
B8C
330
2
100
AcDbSymbolTableRecord
100
AcDbLayerTableRecord
  2
602-01|AM_4
 70
    48
 62
     3
  6
Continuous
370
    25
390
F
  0
LAYER
  5
B8D
330
2
100
AcDbSymbolTableRecord
100
AcDbLayerTableRecord
  2
602-01|AM_REFDIM
 70
    48
 62
     4
  6
Continuous
370
    25
390
F
  0
LAYER
  5
B8E
330
2
100
AcDbSymbolTableRecord
100
AcDbLayerTableRecord
  2
602-01|AM_FR
 70
    53
 62
     7
  6
Continuous
370
    -3
390
F
  0
LAYER
  5
D96
330
2
100
AcDbSymbolTableRecord
100
AcDbLayerTableRecord
  2
AM_5
 70
     0
 62
     3
  6
Continuous
370
    25
390
F
  0
LAYER
  5
FCD
330
2
100
AcDbSymbolTableRecord
100
AcDbLayerTableRecord
  2
602-02|AM_VIEWS
 70
    48
 62
    -1
  6
Continuous
290
     0
370
    25
390
F
  0
LAYER
  5
FCE
330
2
100
AcDbSymbolTableRecord
100
AcDbLayerTableRecord
  2
602-02|AM_VIS
 70
    51
 62
     7
  6
Continuous
370
    50
390
F
  0
LAYER
  5
FCF
330
2
100
AcDbSymbolTableRecord
100
AcDbLayerTableRecord
  2
602-02|AM_HID
 70
    51
 62
     7
  6
602-02|AM_ISO02W050
370
    25
390
F
  0
LAYER
  5
FD0
330
2
100
AcDbSymbolTableRecord
100
AcDbLayerTableRecord
  2
602-02|AM_7
 70
    48
 62
     4
  6
602-02|AM_ISO08W050
370
    25
390
F
  0
LAYER
  5
FD1
330
2
100
AcDbSymbolTableRecord
100
AcDbLayerTableRecord
  2
602-02|AM_10
 70
    48
 62
     7
  6
602-02|AM_ISO08W050
370
    25
390
F
  0
LAYER
  5
FD2
330
2
100
AcDbSymbolTableRecord
100
AcDbLayerTableRecord
  2
602-02|AM_8
 70
    48
 62
     1
  6
Continuous
370
    25
390
F
  0
LAYER
  5
FD3
330
2
100
AcDbSymbolTableRecord
100
AcDbLayerTableRecord
  2
602-02|AMV_3_HATCH
 70
    51
 62
     1
  6
Continuous
370
    -3
390
F
  0
LAYER
  5
FD4
330
2
100
AcDbSymbolTableRecord
100
AcDbLayerTableRecord
  2
602-02|AM_FR
 70
    53
 62
     7
  6
Continuous
370
    -3
390
F
  0
ENDTAB
  0
TABLE
  2
STYLE
  5
3
330
0
100
AcDbSymbolTable
 70
    24
  0
STYLE
  5
11
330
3
100
AcDbSymbolTableRecord
100
AcDbTextStyleTableRecord
  2
Standard
 70
     0
 40
0.0
 41
1.0
 50
0.0
 71
     0
 42
2.5
  3
txt
  4

  0
STYLE
  5
100
330
3
100
AcDbSymbolTableRecord
100
AcDbTextStyleTableRecord
  2

 70
     1
 40
0.0
 41
1.0
 50
0.0
 71
     0
 42
2.5
  3
ltypeshp.shx
  4

  0
STYLE
  5
13D
330
3
100
AcDbSymbolTableRecord
100
AcDbTextStyleTableRecord
  2
ACISOTS
 70
     0
 40
1.0
 41
1.0
 50
0.0
 71
     0
 42
2.5
  3
isocp.shx
  4

  0
STYLE
  5
149
330
3
100
AcDbSymbolTableRecord
100
AcDbTextStyleTableRecord
  2
ACISOGDT
 70
     0
 40
0.0
 41
1.0
 50
0.0
 71
     0
 42
2.5
  3
amgdt.shx
  4

  0
STYLE
  5
17F
330
3
100
AcDbSymbolTableRecord
100
AcDbTextStyleTableRecord
  2
ISOCP
 70
     0
 40
1.0
 41
1.0
 50
0.0
 71
     0
 42
3.974997896592526
  3
isocp.shx
  4

  0
ENDTAB
  0
TABLE
  2
VIEW
  5
6
330
0
100
AcDbSymbolTable
 70
     0
  0
ENDTAB
  0
TABLE
  2
UCS
  5
7
330
0
100
AcDbSymbolTable
 70
     0
  0
ENDTAB
  0
TABLE
  2
APPID
  5
9
330
0
100
AcDbSymbolTable
 70
    15
  0
APPID
  5
12
330
9
100
AcDbSymbolTableRecord
100
AcDbRegAppTableRecord
  2
ACAD
 70
     0
  0
APPID
  5
2C
330
9
100
AcDbSymbolTableRecord
100
AcDbRegAppTableRecord
  2
MCAD_NO_VIS
 70
     0
  0
APPID
  5
2D
330
9
100
AcDbSymbolTableRecord
100
AcDbRegAppTableRecord
  2
ACAD_TEMP_GRAPHIC
 70
     0
  0
APPID
  5
62
330
9
100
AcDbSymbolTableRecord
100
AcDbRegAppTableRecord
  2
AD_DRAW
 70
     0
  0
APPID
  5
65
330
9
100
AcDbSymbolTableRecord
100
AcDbRegAppTableRecord
  2
ACATTRIBSERVICES
 70
     0
  0
APPID
  5
6D
330
9
100
AcDbSymbolTableRecord
100
AcDbRegAppTableRecord
  2
GENIUS_GENDIM_13
 70
     0
  0
APPID
  5
6E
330
9
100
AcDbSymbolTableRecord
100
AcDbRegAppTableRecord
  2
GENIUS_GENDTOL_13
 70
     0
  0
APPID
  5
6F
330
9
100
AcDbSymbolTableRecord
100
AcDbRegAppTableRecord
  2
GENIUS_GE3DTOL_13
 70
     0
  0
APPID
  5
B7
330
9
100
AcDbSymbolTableRecord
100
AcDbRegAppTableRecord
  2
ASURF_PCURVE_APPNAME
 70
     0
  0
APPID
  5
E9
330
9
100
AcDbSymbolTableRecord
100
AcDbRegAppTableRecord
  2
DESIGNERASSEMBLIES
 70
     0
  0
APPID
  5
F1
330
9
100
AcDbSymbolTableRecord
100
AcDbRegAppTableRecord
  2
ACADM_DIM_EDIT
 70
     0
  0
APPID
  5
2B6
330
9
100
AcDbSymbolTableRecord
100
AcDbRegAppTableRecord
  2
AMDT_DM_ADJ
 70
     0
  0
APPID
  5
346
330
9
100
AcDbSymbolTableRecord
100
AcDbRegAppTableRecord
  2
AD_SKETCHDIM
 70
     0
  0
APPID
  5
347
330
9
100
AcDbSymbolTableRecord
100
AcDbRegAppTableRecord
  2
GENIUS_GE3MANIP_13
 70
     0
  0
APPID
  5
5E8
330
9
100
AcDbSymbolTableRecord
100
AcDbRegAppTableRecord
  2
AM_EDITFEAT
 70
     0
  0
ENDTAB
  0
TABLE
  2
DIMSTYLE
  5
A
330
0
100
AcDbSymbolTable
 70
    66
100
AcDbDimStyleTable
 71
     6
340
10E
340
2BE
340
2BD
340
15A
340
155
340
150
  0
DIMSTYLE
105
10E
102
{ACAD_REACTORS
330
98C
330
9AC
330
9C9
330
9E8
330
A08
330
A28
330
C8F
330
D09
330
DFF
330
E54
330
EC6
330
EF3
330
F19
102
}
330
A
100
AcDbSymbolTableRecord
100
AcDbDimStyleTableRecord
  2
Standard
 70
     0
 41
2.5
 42
1.5
 43
3.75
 44
1.25
 73
     0
 77
     1
 78
     1
140
2.5
141
2.5
143
0.03937007874016
147
1.0
171
     3
172
     1
271
     1
272
     1
274
     3
283
     0
284
     1
340
11
  0
DIMSTYLE
105
150
330
A
100
AcDbSymbolTableRecord
100
AcDbDimStyleTableRecord
  2
AM_ISO
 70
     0
  4
"
 41
2.5
 42
1.0
 43
10.0
 44
1.0
 47
0.1
 48
0.1
 73
     0
 74
     0
 77
     1
 78
     8
 79
     2
140
3.5
141
0.0
143
0.0393701
146
0.71
147
1.5
172
     1
176
   256
177
   256
178
     2
271
     2
272
     3
274
     4
283
     0
284
     8
340
11
371
    -1
372
    -1
  0
DIMSTYLE
105
151
330
A
100
AcDbSymbolTableRecord
100
AcDbDimStyleTableRecord
  2
AM_ISO$3
 70
     0
  4
"
 41
2.5
 42
1.0
 43
10.0
 44
1.0
 47
0.1
 48
0.1
 73
     0
 77
     1
 78
     8
 79
     2
140
3.5
141
0.0
143
0.0393701
146
0.71
147
1.5
176
   256
177
   256
178
     2
271
     2
272
     3
274
     4
283
     0
284
     8
288
     1
289
     0
340
11
371
    -1
372
    -1
  0
DIMSTYLE
105
152
330
A
100
AcDbSymbolTableRecord
100
AcDbDimStyleTableRecord
  2
AM_ISO$4
 70
     0
  4
"
 41
2.5
 42
1.0
 43
10.0
 44
1.0
 47
0.1
 48
0.1
 73
     0
 77
     1
 78
     8
 79
     2
140
3.5
141
0.0
143
0.0393701
146
0.71
147
1.5
176
   256
177
   256
178
     2
271
     2
272
     3
274
     4
283
     0
284
     8
288
     1
289
     0
340
11
371
    -1
372
    -1
  0
DIMSTYLE
105
153
330
A
100
AcDbSymbolTableRecord
100
AcDbDimStyleTableRecord
  2
AM_ISO$6
 70
     0
  4
"
 41
2.5
 42
1.0
 43
10.0
 44
1.0
 47
0.1
 48
0.1
 73
     0
 74
     0
 78
     8
 79
     2
140
3.5
141
0.0
143
0.0393701
146
0.71
147
1.5
172
     1
176
   256
177
   256
178
     2
271
     2
272
     3
274
     4
283
     0
284
     8
340
11
371
    -1
372
    -1
  0
DIMSTYLE
105
154
330
A
100
AcDbSymbolTableRecord
100
AcDbDimStyleTableRecord
  2
AM_ISO$7
 70
     0
  4
"
 41
2.5
 42
1.0
 43
10.0
 44
1.0
 47
0.1
 48
0.1
 73
     0
 74
     0
 77
     1
 78
     8
 79
     2
140
5.0
141
0.0
143
0.0393701
146
0.71
147
1.5
172
     1
176
   256
177
   256
178
     2
271
     2
272
     3
274
     4
283
     0
284
     8
340
11
371
    -1
372
    -1
  0
DIMSTYLE
105
155
330
A
100
AcDbSymbolTableRecord
100
AcDbDimStyleTableRecord
  2
AM_ISO$SF
 70
     0
  4
"
 41
2.5
 42
1.0
 43
10.0
 44
1.0
 47
0.1
 48
0.1
 73
     0
 74
     0
 75
     1
 76
     1
 77
     1
 78
     8
 79
     2
140
3.5
141
0.0
143
0.0393701
146
0.71
147
1.5
172
     1
176
   256
177
   256
178
     2
271
     2
272
     3
274
     4
283
     0
284
     8
340
11
371
    -1
372
    -1
  0
DIMSTYLE
105
15A
330
A
100
AcDbSymbolTableRecord
100
AcDbDimStyleTableRecord
  2
AM_ISO$SH
 70
     0
  4
"
 41
2.5
 42
1.0
 43
10.0
 44
1.0
 47
0.1
 48
0.1
 73
     0
 74
     0
 75
     1
 76
     1
 77
     1
 78
     8
 79
     2
140
3.5
141
0.0
143
0.0393701
144
2.0
146
0.71
147
1.5
172
     1
173
     1
176
   256
177
   256
178
     2
271
     2
272
     3
274
     4
283
     0
284
     8
340
11
341
156
343
156
371
    -1
372
    -1
  0
DIMSTYLE
105
2BD
330
A
100
AcDbSymbolTableRecord
100
AcDbDimStyleTableRecord
  2
Section dia's
 70
     0
  3
%%C<>
 41
2.5
 42
1.5
 43
3.75
 44
1.25
 73
     0
 77
     1
 78
     1
140
2.5
141
2.5
143
0.03937007874016
147
1.0
171
     3
172
     1
271
     1
272
     1
274
     3
283
     0
284
     1
340
11
  0
DIMSTYLE
105
2BE
330
A
100
AcDbSymbolTableRecord
100
AcDbDimStyleTableRecord
  2
Toleranced dia's
 70
     0
  3
%%C<>
 41
2.5
 42
1.5
 43
3.75
 44
1.25
 47
-0.009
 48
-0.039
 72
     1
 73
     0
 77
     1
 78
     1
140
2.5
141
2.5
143
0.03937007874016
147
1.0
171
     3
172
     1
271
     1
272
     3
274
     3
283
     0
284
     1
340
11
  0
ENDTAB
  0
TABLE
  2
BLOCK_RECORD
  5
1
330
0
100
AcDbSymbolTable
 70
    52
  0
BLOCK_RECORD
  5
1F
102
{ACAD_XDICTIONARY
360
10F
102
}
330
1
100
AcDbSymbolTableRecord
100
AcDbBlockTableRecord
  2
*Model_Space
340
22
  0
BLOCK_RECORD
  5
1B
330
1
100
AcDbSymbolTableRecord
100
AcDbBlockTableRecord
  2
*Paper_Space
340
1E
  0
BLOCK_RECORD
  5
E0
330
1
100
AcDbSymbolTableRecord
100
AcDbBlockTableRecord
  2
*U0
340
0
  0
BLOCK_RECORD
  5
156
330
1
100
AcDbSymbolTableRecord
100
AcDbBlockTableRecord
  2
GENAXEH
340
0
  0
BLOCK_RECORD
  5
181
330
1
100
AcDbSymbolTableRecord
100
AcDbBlockTableRecord
  2
A3
340
0
102
{BLKREFS
331
26A
102
}
  0
BLOCK_RECORD
  5
33D
330
1
100
AcDbSymbolTableRecord
100
AcDbBlockTableRecord
  2
602-01
340
0
102
{BLKREFS
331
354
331
351
331
765
331
FB8
331
FBE
331
102F
331
1035
331
1044
331
104A
102
}
  0
BLOCK_RECORD
  5
357
330
1
100
AcDbSymbolTableRecord
100
AcDbBlockTableRecord
  2
602-02
340
0
102
{BLKREFS
331
36B
331
368
331
767
331
FB9
331
FBF
331
1034
331
1036
331
1049
331
104B
102
}
  0
BLOCK_RECORD
  5
5E2
330
1
100
AcDbSymbolTableRecord
100
AcDbBlockTableRecord
  2
M6X12SHCS
340
0
102
{BLKREFS
331
5F7
331
5FE
331
605
331
60C
331
5F4
331
5FB
331
602
331
609
331
769
331
76B
331
76D
331
76F
331
FBA
331
FBB
331
FBC
331
FBD
331
FC0
331
FC1
331
FC2
331
FC3
331
1030
331
1031
331
1032
331
1033
331
1037
331
1038
331
1039
331
103A
331
1045
331
1046
331
1047
331
1048
331
104C
331
104D
331
104E
331
104F
102
}
  0
BLOCK_RECORD
  5
753
330
1
100
AcDbSymbolTableRecord
100
AcDbBlockTableRecord
  2
*U6
340
0
102
{BLKREFS
331
75E
102
}
  0
BLOCK_RECORD
  5
757
330
1
100
AcDbSymbolTableRecord
100
AcDbBlockTableRecord
  2
*U7
340
0
102
{BLKREFS
331
75F
102
}
  0
BLOCK_RECORD
  5
98D
330
1
100
AcDbSymbolTableRecord
100
AcDbBlockTableRecord
  2
*D8
340
0
  0
BLOCK_RECORD
  5
9AD
330
1
100
AcDbSymbolTableRecord
100
AcDbBlockTableRecord
  2
*D9
340
0
  0
BLOCK_RECORD
  5
9CA
330
1
100
AcDbSymbolTableRecord
100
AcDbBlockTableRecord
  2
*D10
340
0
  0
BLOCK_RECORD
  5
9E9
330
1
100
AcDbSymbolTableRecord
100
AcDbBlockTableRecord
  2
*D11
340
0
  0
BLOCK_RECORD
  5
A09
330
1
100
AcDbSymbolTableRecord
100
AcDbBlockTableRecord
  2
*D12
340
0
  0
BLOCK_RECORD
  5
A29
330
1
100
AcDbSymbolTableRecord
100
AcDbBlockTableRecord
  2
*D13
340
0
  0
BLOCK_RECORD
  5
C90
330
1
100
AcDbSymbolTableRecord
100
AcDbBlockTableRecord
  2
*D14
340
0
  0
BLOCK_RECORD
  5
D0A
330
1
100
AcDbSymbolTableRecord
100
AcDbBlockTableRecord
  2
*D15
340
0
  0
BLOCK_RECORD
  5
E00
330
1
100
AcDbSymbolTableRecord
100
AcDbBlockTableRecord
  2
*D16
340
0
  0
BLOCK_RECORD
  5
E55
330
1
100
AcDbSymbolTableRecord
100
AcDbBlockTableRecord
  2
*D17
340
0
  0
BLOCK_RECORD
  5
EC7
330
1
100
AcDbSymbolTableRecord
100
AcDbBlockTableRecord
  2
*D18
340
0
  0
BLOCK_RECORD
  5
EF4
330
1
100
AcDbSymbolTableRecord
100
AcDbBlockTableRecord
  2
*D19
340
0
  0
BLOCK_RECORD
  5
F1A
330
1
100
AcDbSymbolTableRecord
100
AcDbBlockTableRecord
  2
*D20
340
0
  0
BLOCK_RECORD
  5
1106
330
1
100
AcDbSymbolTableRecord
100
AcDbBlockTableRecord
  2
*U51
340
0
  0
ENDTAB
  0
ENDSEC
  0
SECTION
  2
BLOCKS
  0
BLOCK
  5
20
330
1F
100
AcDbEntity
  8
0
100
AcDbBlockBegin
  2
*Model_Space
 70
     0
 10
0.0
 20
0.0
 30
0.0
  3
*Model_Space
  1

  0
ENDBLK
  5
21
330
1F
100
AcDbEntity
  8
0
100
AcDbBlockEnd
  0
BLOCK
  5
1C
330
1B
100
AcDbEntity
 67
     1
  8
0
100
AcDbBlockBegin
  2
*Paper_Space
 70
     0
 10
0.0
 20
0.0
 30
0.0
  3
*Paper_Space
  1

  0
ENDBLK
  5
1D
330
1B
100
AcDbEntity
 67
     1
  8
0
100
AcDbBlockEnd
  0
BLOCK
  5
E1
330
E0
100
AcDbEntity
  8
0
100
AcDbBlockBegin
  2
*U0
 70
     1
 10
0.0
 20
0.0
 30
0.0
  3
*U0
  1

  0
INSERT
  5
1044
330
E0
100
AcDbEntity
  8
0
100
AcDbBlockReference
  2
602-01
 10
-68.85255562683937
 20
139.7270779560822
 30
-69.0
  0
INSERT
  5
1045
330
E0
100
AcDbEntity
  8
0
100
AcDbBlockReference
  2
M6X12SHCS
 10
225.3659209732826
 20
24.49022447644527
 30
323.5708516706861
 50
89.99999999999998
210
1.0
220
0.0
230
0.0
  0
INSERT
  5
1046
330
E0
100
AcDbEntity
  8
0
100
AcDbBlockReference
  2
M6X12SHCS
 10
225.3659209732826
 20
24.49022447644534
 30
257.5708516706863
 50
89.99999999999998
210
1.0
220
0.0
230
0.0
  0
INSERT
  5
1047
330
E0
100
AcDbEntity
  8
0
100
AcDbBlockReference
  2
M6X12SHCS
 10
225.3659209732826
 20
-35.50977552355465
 30
257.5708516706863
 50
89.99999999999998
210
1.0
220
0.0
230
0.0
  0
INSERT
  5
1048
330
E0
100
AcDbEntity
  8
0
100
AcDbBlockReference
  2
M6X12SHCS
 10
225.3659209732826
 20
-35.50977552355465
 30
323.5708516706861
 50
89.99999999999998
210
1.0
220
0.0
230
0.0
  0
INSERT
  5
1049
330
E0
100
AcDbEntity
  8
0
100
AcDbBlockReference
  2
602-02
 10
-99.572358027893
 20
-135.1124956496631
 30
-190.7128760969137
210
0.0
220
-1.0
230
0.0000000000000002
  0
ENDBLK
  5
E2
330
E0
100
AcDbEntity
  8
0
100
AcDbBlockEnd
  0
BLOCK
  5
158
330
156
100
AcDbEntity
  8
0
100
AcDbBlockBegin
  2
GENAXEH
 70
     0
 10
0.0
 20
0.0
 30
0.0
  3
GENAXEH
  1

  0
LINE
  5
157
330
156
100
AcDbEntity
  8
0
100
AcDbLine
 10
-1.0
 20
0.0
 30
0.0
 11
1.0
 21
0.0
 31
0.0
  0
ENDBLK
  5
159
330
156
100
AcDbEntity
  8
0
100
AcDbBlockEnd
  0
BLOCK
  5
268
330
181
100
AcDbEntity
  8
0
100
AcDbBlockBegin
  2
A3
 70
     2
 10
0.0
 20
0.0
 30
0.0
  3
A3
  1

  0
LINE
  5
182
330
181
100
AcDbEntity
  8
0
100
AcDbLine
 10
10.00000009257836
 20
9.999999905031586
 30
0.0
 11
410.0000000925782
 21
9.999999905031586
 31
0.0
  0
TEXT
  5
183
330
181
100
AcDbEntity
  8
0
100
AcDbText
 10
393.6171807167331
 20
295.3192198117568
 30
0.0
 40
3.0
  1
DATE
  7
ISOCP
100
AcDbText
  0
TEXT
  5
184
330
181
100
AcDbEntity
  8
0
100
AcDbText
 10
375.2666042998173
 20
295.1712947063716
 30
0.0
 40
3.0
  1
CHKD
  7
ISOCP
100
AcDbText
  0
LINE
  5
185
330
181
100
AcDbEntity
  8
0
100
AcDbLine
 10
374.7125305157326
 20
298.9959488096987
 30
0.0
 11
374.7125305157326
 21
293.9959488096988
 31
0.0
  0
LINE
  5
186
330
181
100
AcDbEntity
  8
0
100
AcDbLine
 10
386.0757111875721
 20
298.9959488096987
 30
0.0
 11
386.0757111875721
 21
293.9959488096988
 31
0.0
  0
TEXT
  5
187
330
181
100
AcDbEntity
  8
0
100
AcDbText
 10
360.3197620224441
 20
295.171293708422
 30
0.0
 40
3.0
  1
REV BY
  7
ISOCP
100
AcDbText
  0
LINE
  5
188
330
181
100
AcDbEntity
  8
0
100
AcDbLine
 10
359.6618966039546
 20
298.9959488096987
 30
0.0
 11
359.6618966039548
 21
293.9959488096988
 31
0.0
  0
LINE
  5
189
330
181
100
AcDbEntity
  8
0
100
AcDbLine
 10
329.7125305157326
 20
298.9959488096987
 30
0.0
 11
329.7125305157326
 21
293.9959488096988
 31
0.0
  0
LINE
  5
18A
330
181
100
AcDbEntity
  8
0
100
AcDbLine
 10
319.7125305157326
 20
293.9959488096988
 30
0.0
 11
314.7125305157326
 21
293.9959488096988
 31
0.0
  0
LINE
  5
18B
330
181
100
AcDbEntity
  8
0
100
AcDbLine
 10
314.7125305157326
 20
298.9959488096987
 30
0.0
 11
314.7125305157326
 21
293.9959488096988
 31
0.0
  0
LINE
  5
18C
330
181
100
AcDbEntity
  8
0
100
AcDbLine
 10
314.7125305157326
 20
293.9959488096988
 30
0.0
 11
314.7125305157326
 21
298.9959488096987
 31
0.0
  0
TEXT
  5
18D
330
181
100
AcDbEntity
  8
0
100
AcDbText
 10
316.8111369281226
 20
295.1712947063713
 30
0.0
 40
3.0
  1
ISSUE
  7
ISOCP
100
AcDbText
  0
LINE
  5
18E
330
181
100
AcDbEntity
  8
0
100
AcDbLine
 10
409.7125305157326
 20
293.9959488096988
 30
0.0
 11
314.7125305157325
 21
293.9959488096988
 31
0.0
  0
LINE
  5
18F
330
181
100
AcDbEntity
  8
0
100
AcDbLine
 10
410.0000000925782
 20
293.9959488096988
 30
0.0
 11
319.7125305157326
 21
293.9959488096988
 31
0.0
  0
TEXT
  5
190
330
181
100
AcDbEntity
  8
0
100
AcDbText
 10
333.3858518817379
 20
295.1712937084216
 30
0.0
 40
3.0
  1
EPM NUMBER
  7
ISOCP
100
AcDbText
  0
TEXT
  5
191
330
181
100
AcDbEntity
  8
0
100
AcDbText
 10
355.0000000925782
 20
63.4117484811743
 30
0.0
 40
2.0
  1
DESCRIPTION
  7
ISOCP
100
AcDbText
  0
TEXT
  5
192
330
181
100
AcDbEntity
  8
0
100
AcDbText
 10
350.8415650210963
 20
56.75303260175133
 30
0.0
 40
2.0
  1
CUSTOMER DRG No/ISSUE:
 41
0.8
  7
ISOCP
100
AcDbText
  0
LINE
  5
193
330
181
100
AcDbEntity
  8
0
100
AcDbLine
 10
410.0000000925782
 20
9.999999905031586
 30
0.0
 11
410.0000000925782
 21
19.71077347041807
 31
0.0
  0
CIRCLE
  5
194
330
181
100
AcDbEntity
  8
0
100
AcDbCircle
 10
404.7223673468236
 20
34.98347481050892
 30
0.0
 40
1.184245572321287
  0
LINE
  5
195
330
181
100
AcDbEntity
  8
0
100
AcDbLine
 10
404.7223673468236
 20
32.61498366586634
 30
0.0
 11
404.7223673468236
 21
37.3519659551515
 31
0.0
  0
LINE
  5
196
330
181
100
AcDbEntity
  8
0
100
AcDbLine
 10
398.8011394852171
 20
34.98347481050892
 30
0.0
 11
398.8011394852171
 21
33.79922923818762
 31
0.0
  0
LINE
  5
197
330
181
100
AcDbEntity
  8
0
100
AcDbLine
 10
398.8011394852171
 20
34.98347481050892
 30
0.0
 11
398.8011394852171
 21
36.16772038283021
 31
0.0
  0
LINE
  5
198
330
181
100
AcDbEntity
  8
0
100
AcDbLine
 10
392.8799116236106
 20
34.98347481050892
 30
0.0
 11
392.8799116236106
 21
37.3519659551515
 31
0.0
  0
LINE
  5
199
330
181
100
AcDbEntity
  8
0
100
AcDbLine
 10
392.8799116236106
 20
34.98347481050892
 30
0.0
 11
392.8799116236106
 21
32.61498366586634
 31
0.0
  0
LINE
  5
19A
330
181
100
AcDbEntity
  8
0
100
AcDbLine
 10
392.8799116236106
 20
32.61498366586634
 30
0.0
 11
398.8011394852171
 21
33.79922923818762
 31
0.0
  0
LINE
  5
19B
330
181
100
AcDbEntity
  8
0
100
AcDbLine
 10
392.8799116236106
 20
37.3519659551515
 30
0.0
 11
398.8011394852171
 21
36.16772038283021
 31
0.0
  0
TEXT
  5
19C
330
181
100
AcDbEntity
  8
0
100
AcDbText
 10
375.7506211436425
 20
35.16835704818481
 30
0.0
 40
2.0
  1
DRAWN TO
  7
ISOCP
100
AcDbText
  0
ATTDEF
  5
19D
330
181
100
AcDbEntity
  8
0
100
AcDbText
 10
390.1605612800056
 20
43.24700318097564
 30
0.0
 40
3.0
  1

 41
0.9
  7
ISOCP
 72
     4
 11
390.1605612800056
 21
43.24700318097564
 31
0.0
100
AcDbAttributeDefinition
  3
DRAWINGS SCALE
  2
SCALE
 70
     0
  0
LINE
  5
19E
330
181
100
AcDbEntity
  8
0
100
AcDbLine
 10
400.0000000925783
 20
19.71077347041807
 30
0.0
 11
400.0000000925783
 21
9.999999905031586
 31
0.0
  0
TEXT
  5
19F
330
181
100
AcDbEntity
  8
0
100
AcDbText
 10
375.7506211436425
 20
31.36835704818482
 30
0.0
 40
2.0
  1
 BS 308
  7
ISOCP
100
AcDbText
  0
LINE
  5
1A0
330
181
100
AcDbEntity
  8
0
100
AcDbLine
 10
370.0000000925782
 20
39.71077347041807
 30
0.0
 11
370.0000000925782
 21
49.71077347041807
 31
0.0
  0
ATTDEF
  5
1A1
330
181
100
AcDbEntity
  8
0
100
AcDbText
 10
350.1799472381311
 20
44.00258500863901
 30
0.0
 40
3.0
  1

 41
0.9
  7
ISOCP
 72
     4
 11
350.1799472381311
 21
44.00258500863901
 31
0.0
100
AcDbAttributeDefinition
  3
TODAYS DATE
  2
DATE
 70
     0
  0
ATTDEF
  5
1A2
330
181
100
AcDbEntity
  8
0
100
AcDbText
 10
361.0305659850972
 20
14.02507953178792
 30
0.0
 40
3.0
  1

 41
0.9
  7
ISOCP
 72
     4
 11
361.0305659850972
 21
14.02507953178792
 31
0.0
100
AcDbAttributeDefinition
  3
 DRG No
  2
DRGNO
 70
     0
  0
LINE
  5
1A3
330
181
100
AcDbEntity
  8
0
100
AcDbLine
 10
370.0000000925782
 20
39.71077347041807
 30
0.0
 11
370.0000000925782
 21
29.71077347041807
 31
0.0
  0
ATTDEF
  5
1A4
330
181
100
AcDbEntity
  8
0
100
AcDbText
 10
349.9626912841273
 20
33.32998865625609
 30
0.0
 40
3.0
  1

 41
0.9
  7
ISOCP
 72
     4
 11
349.9626912841273
 21
33.32998865625609
 31
0.0
100
AcDbAttributeDefinition
  3
CHECKED DATE
  2
DATE
 70
     0
  0
TEXT
  5
1A5
330
181
100
AcDbEntity
  8
0
100
AcDbText
 10
370.5791050447759
 20
46.46695484044971
 30
0.0
 40
2.0
  1
SCALE:
 41
0.8
  7
ISOCP
100
AcDbText
  0
ATTDEF
  5
1A6
330
181
100
AcDbEntity
  8
0
100
AcDbText
 10
378.345959530303
 20
53.06957017967977
 30
0.0
 40
3.0
  1

 41
0.9
  7
ISOCP
 72
     4
 11
378.345959530303
 21
53.06957017967977
 31
0.0
100
AcDbAttributeDefinition
  3
CUSTOMERS DRG No AND ISSUE
  2
CUSTOMERDRGNO/ISSUE
 70
     0
  0
LINE
  5
1A7
330
181
100
AcDbEntity
  8
0
100
AcDbLine
 10
400.0000000925783
 20
9.999999905031586
 30
0.0
 11
410.0000000925782
 21
9.999999905031586
 31
0.0
  0
LINE
  5
1A8
330
181
100
AcDbEntity
  8
0
100
AcDbLine
 10
380.0000000925782
 20
19.71077347041807
 30
0.0
 11
410.0000000925782
 21
19.71077347041807
 31
0.0
  0
TEXT
  5
1A9
330
181
100
AcDbEntity
  8
0
100
AcDbText
 10
401.8017380286476
 20
16.6953849876254
 30
0.0
 40
2.0
  1
ISSUE
 41
0.8
  7
ISOCP
100
AcDbText
  0
CIRCLE
  5
1AA
330
181
100
AcDbEntity
  8
0
100
AcDbCircle
 10
404.7223673468236
 20
34.98347481050892
 30
0.0
 40
2.368491144642574
  0
LINE
  5
1AB
330
181
100
AcDbEntity
  8
0
100
AcDbLine
 10
407.090858491466
 20
34.98347481050892
 30
0.0
 11
389.8188612074317
 21
34.98347481050892
 31
0.0
  0
ATTDEF
  5
1AC
330
181
100
AcDbEntity
  8
0
100
AcDbText
 10
405.2011648437826
 20
12.92968419435339
 30
0.0
 40
3.0
  1

 41
0.9
  7
ISOCP
 72
     4
 11
405.2011648437826
 21
12.92968419435339
 31
0.0
100
AcDbAttributeDefinition
  3
ISSUE LETTER
  2
ISSUE
 70
     0
  0
LINE
  5
1AD
330
181
100
AcDbEntity
  8
0
100
AcDbLine
 10
350.0000000925782
 20
59.71077347041807
 30
0.0
 11
350.0000000925782
 21
49.71077347041807
 31
0.0
  0
TEXT
  5
1AE
330
181
100
AcDbEntity
  8
0
100
AcDbText
 10
309.9589135086166
 20
62.28294404125772
 30
0.0
 40
2.0
  1
PER
  7
ISOCP
100
AcDbText
  0
TEXT
  5
1AF
330
181
100
AcDbEntity
  8
0
100
AcDbText
 10
310.6541967078313
 20
66.08294404125775
 30
0.0
 40
2.0
  1
No
  7
ISOCP
100
AcDbText
  0
LINE
  5
1B0
330
181
100
AcDbEntity
  8
0
100
AcDbLine
 10
320.0000000925783
 20
69.71077347041816
 30
0.0
 11
320.0000000925783
 21
59.71077347041816
 31
0.0
  0
LINE
  5
1B1
330
181
100
AcDbEntity
  8
0
100
AcDbLine
 10
320.0000000925783
 20
69.71077347041807
 30
0.0
 11
320.0000000925783
 21
79.71077347041806
 31
0.0
  0
LINE
  5
1B2
330
181
100
AcDbEntity
  8
0
100
AcDbLine
 10
305.0000000925783
 20
69.71077347041807
 30
0.0
 11
305.0000000925783
 21
59.71077347041807
 31
0.0
  0
TEXT
  5
1B3
330
181
100
AcDbEntity
  8
0
100
AcDbText
 10
284.7199857423003
 20
63.34811020901407
 30
0.0
 40
2.0
  1
PART No:
  7
ISOCP
100
AcDbText
  0
LINE
  5
1B4
330
181
100
AcDbEntity
  8
0
100
AcDbLine
 10
305.0000000925783
 20
69.71077347041807
 30
0.0
 11
305.0000000925783
 21
79.71077347041806
 31
0.0
  0
TEXT
  5
1B5
330
181
100
AcDbEntity
  8
0
100
AcDbText
 10
290.5684991600391
 20
56.65858507573592
 30
0.0
 40
2.0
  1
CUSTOMER/USED ON:
 41
0.8
  7
ISOCP
100
AcDbText
  0
TEXT
  5
1B6
330
181
100
AcDbEntity
  8
0
100
AcDbText
 10
265.5609500589021
 20
62.16273487642347
 30
0.0
 40
2.0
  1
No
  7
ISOCP
100
AcDbText
  0
LINE
  5
1B7
330
181
100
AcDbEntity
  8
0
100
AcDbLine
 10
260.0000000925783
 20
69.71077347041807
 30
0.0
 11
260.0000000925783
 21
59.71077347041807
 31
0.0
  0
TEXT
  5
1B8
330
181
100
AcDbEntity
  8
0
100
AcDbText
 10
264.6339048386767
 20
65.96273487642349
 30
0.0
 40
2.0
  1
ITEM
  7
ISOCP
100
AcDbText
  0
LINE
  5
1B9
330
181
100
AcDbEntity
  8
0
100
AcDbLine
 10
275.0000000925783
 20
69.71077347041807
 30
0.0
 11
275.0000000925783
 21
59.71077347041807
 31
0.0
  0
TEXT
  5
1BA
330
181
100
AcDbEntity
  8
0
100
AcDbText
 10
248.3930257854613
 20
63.73681671859707
 30
0.0
 40
2.0
  1
SPEC:
  7
ISOCP
100
AcDbText
  0
LINE
  5
1BB
330
181
100
AcDbEntity
  8
0
100
AcDbLine
 10
245.0000000925783
 20
69.71077347041807
 30
0.0
 11
245.0000000925783
 21
59.71077347041807
 31
0.0
  0
LINE
  5
1BC
330
181
100
AcDbEntity
  8
0
100
AcDbLine
 10
260.0000000925783
 20
69.71077347041807
 30
0.0
 11
260.0000000925783
 21
79.71077347041806
 31
0.0
  0
LINE
  5
1BD
330
181
100
AcDbEntity
  8
0
100
AcDbLine
 10
275.0000000925783
 20
69.71077347041807
 30
0.0
 11
275.0000000925783
 21
79.71077347041806
 31
0.0
  0
LINE
  5
1BE
330
181
100
AcDbEntity
  8
0
100
AcDbLine
 10
245.0000000925783
 20
69.71077347041807
 30
0.0
 11
245.0000000925783
 21
79.71077347041806
 31
0.0
  0
LINE
  5
1BF
330
181
100
AcDbEntity
  8
0
100
AcDbLine
 10
230.0000000925783
 20
69.71077347041807
 30
0.0
 11
230.0000000925783
 21
79.71077347041806
 31
0.0
  0
TEXT
  5
1C0
330
181
100
AcDbEntity
  8
0
100
AcDbText
 10
231.4790404714706
 20
63.69954910260151
 30
0.0
 40
2.0
  1
MATERIAL:
  7
ISOCP
100
AcDbText
  0
TEXT
  5
1C1
330
181
100
AcDbEntity
  8
0
100
AcDbText
 10
330.7666257329638
 20
46.75438798562311
 30
0.0
 40
2.0
  1
DATE:
 41
0.8
  7
ISOCP
100
AcDbText
  0
TEXT
  5
1C2
330
181
100
AcDbEntity
  8
0
100
AcDbText
 10
331.0657180921519
 20
36.29064750154987
 30
0.0
 40
2.0
  1
DATE:
 41
0.8
  7
ISOCP
100
AcDbText
  0
LINE
  5
1C3
330
181
100
AcDbEntity
  8
0
100
AcDbLine
 10
330.0000000925783
 20
39.71077347041807
 30
0.0
 11
330.0000000925783
 21
49.71077347041807
 31
0.0
  0
LINE
  5
1C4
330
181
100
AcDbEntity
  8
0
100
AcDbLine
 10
330.0000000925783
 20
19.71077347041807
 30
0.0
 11
325.0000000925783
 21
19.71077347041807
 31
0.0
  0
LINE
  5
1C5
330
181
100
AcDbEntity
  8
0
100
AcDbLine
 10
325.0000000925783
 20
19.71077347041807
 30
0.0
 11
325.0000000925783
 21
9.999999905031586
 31
0.0
  0
TEXT
  5
1C6
330
181
100
AcDbEntity
  8
0
100
AcDbText
 10
325.2728242806254
 20
15.75214848050882
 30
0.0
 40
3.0
  1
DRG No:
 41
0.8
  7
ISOCP
100
AcDbText
  0
LINE
  5
1C7
330
181
100
AcDbEntity
  8
0
100
AcDbLine
 10
330.0000000925783
 20
39.71077347041807
 30
0.0
 11
330.0000000925783
 21
29.71077347041807
 31
0.0
  0
TEXT
  5
1C8
330
181
100
AcDbEntity
  8
0
100
AcDbText
 10
290.7117800136254
 20
36.41824257354142
 30
0.0
 40
2.0
  1
CHECK:
 41
0.8
  7
ISOCP
100
AcDbText
  0
TEXT
  5
1C9
330
181
100
AcDbEntity
  8
0
100
AcDbText
 10
290.794111948927
 20
46.82759706719115
 30
0.0
 40
2.0
  1
DRAWN BY:
 41
0.8
  7
ISOCP
100
AcDbText
  0
TEXT
  5
1CA
330
181
100
AcDbEntity
  8
0
100
AcDbText
 10
291.0108750270828
 20
16.38765304811703
 30
0.0
 40
2.0
  1
PROJ No.
 41
0.8
  7
ISOCP
100
AcDbText
  0
TEXT
  5
1CB
330
181
100
AcDbEntity
  8
0
100
AcDbText
 10
290.8771751041659
 20
26.27029487716878
 30
0.0
 40
2.0
  1
DESCRIPTION:
 41
0.8
  7
ISOCP
100
AcDbText
  0
LINE
  5
1CC
330
181
100
AcDbEntity
  8
0
100
AcDbLine
 10
325.0000000925783
 20
49.71077347041807
 30
0.0
 11
290.0000000925783
 21
49.71077347041807
 31
0.0
  0
LINE
  5
1CD
330
181
100
AcDbEntity
  8
0
100
AcDbLine
 10
325.0000000925783
 20
39.71077347041807
 30
0.0
 11
290.0000000925783
 21
39.71077347041807
 31
0.0
  0
LINE
  5
1CE
330
181
100
AcDbEntity
  8
0
100
AcDbLine
 10
325.0000000925783
 20
29.71077347041807
 30
0.0
 11
290.0000000925783
 21
29.71077347041807
 31
0.0
  0
LINE
  5
1CF
330
181
100
AcDbEntity
  8
0
100
AcDbLine
 10
325.0000000925783
 20
19.71077347041807
 30
0.0
 11
290.0000000925783
 21
19.71077347041807
 31
0.0
  0
ATTDEF
  5
1D0
330
181
100
AcDbEntity
  8
0
100
AcDbText
 10
319.0180611718588
 20
53.06957017967977
 30
0.0
 40
3.0
  1

 41
0.9
  7
ISOCP
 72
     4
 11
319.0180611718588
 21
53.06957017967977
 31
0.0
100
AcDbAttributeDefinition
  3
CUSTOMER/USEDON
  2
CUSTOMER/USEDON
 70
     0
  0
ATTDEF
  5
1D1
330
181
100
AcDbEntity
  8
0
100
AcDbText
 10
309.9444462420058
 20
43.43589904277656
 30
0.0
 40
3.0
  1

 41
0.9
  7
ISOCP
 72
     4
 11
309.9444462420058
 21
43.43589904277656
 31
0.0
100
AcDbAttributeDefinition
  3
 INITIALS
  2
DRAWNBY
 70
     0
  0
ATTDEF
  5
1D2
330
181
100
AcDbEntity
  8
0
100
AcDbText
 10
309.9444462420058
 20
33.32998865625609
 30
0.0
 40
3.0
  1

 41
0.9
  7
ISOCP
 72
     4
 11
309.9444462420058
 21
33.32998865625609
 31
0.0
100
AcDbAttributeDefinition
  3
CHECKED BY
  2
CHECK
 70
     0
  0
ATTDEF
  5
1D3
330
181
100
AcDbEntity
  8
0
100
AcDbText
 10
307.4964168918658
 20
12.98615431630821
 30
0.0
 40
3.0
  1

 41
0.9
  7
ISOCP
 72
     4
 11
307.4964168918658
 21
12.98615431630821
 31
0.0
100
AcDbAttributeDefinition
  3
PROJECT No
  2
PROJNO
 70
     0
  0
TEXT
  5
1D4
330
181
100
AcDbEntity
  8
0
100
AcDbText
 10
231.3794705376741
 20
46.58902326411031
 30
0.0
 40
2.0
  1
X= ± 0.7
  7
ISOCP
100
AcDbText
  0
TEXT
  5
1D5
330
181
100
AcDbEntity
  8
0
100
AcDbText
 10
231.4295663420009
 20
24.16310776151819
 30
0.0
 40
2.0
  1
\U+2205
  7
ISOCP
100
AcDbText
  0
LINE
  5
1D6
330
181
100
AcDbEntity
  8
0
100
AcDbLine
 10
240.0000000925783
 20
9.999999905031586
 30
0.0
 11
240.0000000925783
 21
9.999999905031586
 31
0.0
  0
TEXT
  5
1D7
330
181
100
AcDbEntity
  8
0
100
AcDbText
 10
231.4295663420009
 20
14.14880533107818
 30
0.0
 40
2.0
  1
3.2µm
  7
ISOCP
100
AcDbText
  0
LINE
  5
1D8
330
181
100
AcDbEntity
  8
0
100
AcDbLine
 10
220.0000000925783
 20
9.999999905031586
 30
0.0
 11
220.0000000925783
 21
14.99999990503158
 31
0.0
  0
LINE
  5
1D9
330
181
100
AcDbEntity
  8
0
100
AcDbLine
 10
219.0000000925783
 20
9.999999905031586
 30
0.0
 11
219.0000000925784
 21
12.87572493379536
 31
0.0
  0
LINE
  5
1DA
330
181
100
AcDbEntity
  8
0
100
AcDbLine
 10
215.0000000925783
 20
9.999999905031586
 30
0.0
 11
215.0000000925783
 21
12.87572493379536
 31
0.0
  0
LINE
  5
1DB
330
181
100
AcDbEntity
  8
0
100
AcDbLine
 10
216.0000000925783
 20
9.999999905031586
 30
0.0
 11
216.0000000925783
 21
12.87572493379536
 31
0.0
  0
LINE
  5
1DC
330
181
100
AcDbEntity
  8
0
100
AcDbLine
 10
217.0000000925783
 20
9.999999905031586
 30
0.0
 11
217.0000000925783
 21
12.87572493379536
 31
0.0
  0
LINE
  5
1DD
330
181
100
AcDbEntity
  8
0
100
AcDbLine
 10
218.0000000925783
 20
9.999999905031586
 30
0.0
 11
218.0000000925783
 21
12.87572493379536
 31
0.0
  0
LINE
  5
1DE
330
181
100
AcDbEntity
  8
0
100
AcDbLine
 10
211.0000000925783
 20
9.999999905031586
 30
0.0
 11
211.0000000925783
 21
12.87572493379536
 31
0.0
  0
LINE
  5
1DF
330
181
100
AcDbEntity
  8
0
100
AcDbLine
 10
212.0000000925784
 20
9.999999905031586
 30
0.0
 11
212.0000000925784
 21
12.87572493379536
 31
0.0
  0
LINE
  5
1E0
330
181
100
AcDbEntity
  8
0
100
AcDbLine
 10
213.0000000925783
 20
9.999999905031586
 30
0.0
 11
213.0000000925783
 21
12.87572493379536
 31
0.0
  0
LINE
  5
1E1
330
181
100
AcDbEntity
  8
0
100
AcDbLine
 10
214.0000000925784
 20
9.999999905031586
 30
0.0
 11
214.0000000925784
 21
12.87572493379536
 31
0.0
  0
TEXT
  5
1E2
330
181
100
AcDbEntity
  8
0
100
AcDbText
 10
231.3794705376741
 20
36.58468247194224
 30
0.0
 40
2.0
  1
ANGLES= ±0.5°
  7
ISOCP
100
AcDbText
  0
TEXT
  5
1E3
330
181
100
AcDbEntity
  8
0
100
AcDbText
 10
231.3794705376741
 20
39.92156919586884
 30
0.0
 40
2.0
  1
X.XX= ± 0.12
  7
ISOCP
100
AcDbText
  0
TEXT
  5
1E4
330
181
100
AcDbEntity
  8
0
100
AcDbText
 10
231.3794705376741
 20
43.25529622998957
 30
0.0
 40
2.0
  1
X.X= ± 0.25
  7
ISOCP
100
AcDbText
  0
TEXT
  5
1E5
330
181
100
AcDbEntity
  8
0
100
AcDbText
 10
231.4830239282674
 20
49.92235659744364
 30
0.0
 40
2.0
  1
GENERAL TOLERANCES 
  7
ISOCP
100
AcDbText
  0
TEXT
  5
1E6
330
181
100
AcDbEntity
  8
0
100
AcDbText
 10
231.3794705376741
 20
53.25924332137025
 30
0.0
 40
2.0
  1
ALL DIMS IN mm
  7
ISOCP
100
AcDbText
  0
TEXT
  5
1E7
330
181
100
AcDbEntity
  8
0
100
AcDbText
 10
231.4295663420009
 20
17.48253236519892
 30
0.0
 40
2.0
  1
MACHINED SURFACE FINISH TO BE
  7
ISOCP
100
AcDbText
  0
TEXT
  5
1E8
330
181
100
AcDbEntity
  8
0
100
AcDbText
 10
231.5087789404261
 20
20.82977442818485
 30
0.0
 40
2.0
  1
SQUARENESS=0.1
  7
ISOCP
100
AcDbText
  0
TEXT
  5
1E9
330
181
100
AcDbEntity
  8
0
100
AcDbText
 10
233.2295663420009
 20
24.16310776151819
 30
0.0
 40
2.0
  1
TO BE CONCENTRIC TO 0.1 TIR
  7
ISOCP
100
AcDbText
  0
TEXT
  5
1EA
330
181
100
AcDbEntity
  8
0
100
AcDbText
 10
231.4295663420009
 20
27.49644109485152
 30
0.0
 40
2.0
  1
UNSPECIFIED RADS=0.8 
  7
ISOCP
100
AcDbText
  0
TEXT
  5
1EB
330
181
100
AcDbEntity
  8
0
100
AcDbText
 10
231.4295663420009
 20
30.84368315783746
 30
0.0
 40
2.0
  1
BREAK ALL CORNERS 1.0x45°
  7
ISOCP
100
AcDbText
  0
LINE
  5
1EC
330
181
100
AcDbEntity
  8
0
100
AcDbLine
 10
290.0000000925783
 20
59.71077347041807
 30
0.0
 11
290.0000000925783
 21
9.999999905031586
 31
0.0
  0
LINE
  5
1ED
330
181
100
AcDbEntity
  8
0
100
AcDbLine
 10
230.0000000925783
 20
69.71077347041807
 30
0.0
 11
230.0000000925783
 21
9.999999905031586
 31
0.0
  0
TEXT
  5
1EE
330
181
100
AcDbEntity
  8
0
100
AcDbText
 10
231.4808996751235
 20
56.03573604880463
 30
0.0
 40
2.25
  1
%%uUNLESS OTHERWISE STATED%%U
  7
ISOCP
100
AcDbText
  0
LINE
  5
1EF
330
181
100
AcDbEntity
  8
0
100
AcDbLine
 10
230.0000000925783
 20
69.71077347041807
 30
0.0
 11
410.0000000925782
 21
69.71077347041807
 31
0.0
  0
LINE
  5
1F0
330
181
100
AcDbEntity
  8
0
100
AcDbLine
 10
410.0000000925782
 20
59.71077347041808
 30
0.0
 11
230.0000000925783
 21
59.71077347041807
 31
0.0
  0
LINE
  5
1F1
330
181
100
AcDbEntity
  8
0
100
AcDbLine
 10
325.0000000925783
 20
29.71077347041807
 30
0.0
 11
410.0000000925782
 21
29.71077347041807
 31
0.0
  0
LINE
  5
1F2
330
181
100
AcDbEntity
  8
0
100
AcDbLine
 10
325.0000000925783
 20
39.71077347041807
 30
0.0
 11
410.0000000925782
 21
39.71077347041807
 31
0.0
  0
LINE
  5
1F3
330
181
100
AcDbEntity
  8
0
100
AcDbLine
 10
325.0000000925783
 20
49.71077347041807
 30
0.0
 11
410.0000000925782
 21
49.71077347041807
 31
0.0
  0
LINE
  5
1F4
330
181
100
AcDbEntity
  8
0
100
AcDbLine
 10
330.0000000925783
 20
19.71077347041807
 30
0.0
 11
380.0000000925782
 21
19.71077347041807
 31
0.0
  0
ATTDEF
  5
1F5
330
181
100
AcDbEntity
  8
0
100
AcDbText
 10
351.0447312593758
 20
24.12627705680529
 30
0.0
 40
3.0
  1

 41
0.9
  7
ISOCP
 72
     4
 11
351.0447312593758
 21
24.12627705680529
 31
0.0
100
AcDbAttributeDefinition
  3
DESCRIPTION
  2
DESCRIPTION
 70
     0
  0
LINE
  5
1F6
330
181
100
AcDbEntity
  8
0
100
AcDbLine
 10
410.0000000925782
 20
9.999999905031586
 30
0.0
 11
410.0000000925782
 21
298.9999999050315
 31
0.0
  0
LINE
  5
1F7
330
181
100
AcDbEntity
  8
0
100
AcDbLine
 10
90.31846010921027
 20
298.9999999050315
 30
0.0
 11
90.31846010921027
 21
288.9999999050315
 31
0.0
  0
ATTDEF
  5
1F8
330
181
100
AcDbEntity
  8
0
100
AcDbText
 10
54.06051613489558
 20
293.2287748296255
 30
0.0
 40
3.0
  1

 41
0.9
  7
ISOCP
 72
     4
 11
54.06051613489558
 21
293.2287748296255
 31
0.0
100
AcDbAttributeDefinition
  3
DRG No
  2
DRGNO
 70
     0
  0
TEXT
  5
1F9
330
181
100
AcDbEntity
  8
0
100
AcDbText
 10
11.71698200864897
 20
291.9065062263296
 30
0.0
 40
3.0
  1
DRG No.
 41
0.8
  7
ISOCP
100
AcDbText
  0
LINE
  5
1FA
330
181
100
AcDbEntity
  8
0
100
AcDbLine
 10
10.00000009257836
 20
288.9999999050315
 30
0.0
 11
90.31846010921027
 21
288.9999999050315
 31
0.0
  0
LINE
  5
1FB
330
181
100
AcDbEntity
  8
0
100
AcDbLine
 10
210.0000000925783
 20
9.999999905031586
 30
0.0
 11
210.0000000925783
 21
14.99999990503158
 31
0.0
  0
LINE
  5
1FC
330
181
100
AcDbEntity
  8
0
100
AcDbLine
 10
206.0000000925783
 20
9.999999905031586
 30
0.0
 11
206.0000000925783
 21
12.87572493379536
 31
0.0
  0
LINE
  5
1FD
330
181
100
AcDbEntity
  8
0
100
AcDbLine
 10
207.0000000925783
 20
9.999999905031586
 30
0.0
 11
207.0000000925783
 21
12.87572493379536
 31
0.0
  0
LINE
  5
1FE
330
181
100
AcDbEntity
  8
0
100
AcDbLine
 10
208.0000000925783
 20
9.999999905031586
 30
0.0
 11
208.0000000925783
 21
12.87572493379536
 31
0.0
  0
LINE
  5
1FF
330
181
100
AcDbEntity
  8
0
100
AcDbLine
 10
209.0000000925783
 20
9.999999905031586
 30
0.0
 11
209.0000000925783
 21
12.87572493379536
 31
0.0
  0
LINE
  5
200
330
181
100
AcDbEntity
  8
0
100
AcDbLine
 10
210.0000000925783
 20
9.999999905031586
 30
0.0
 11
210.0000000925783
 21
14.99999990503158
 31
0.0
  0
LINE
  5
201
330
181
100
AcDbEntity
  8
0
100
AcDbLine
 10
202.0000000925783
 20
9.999999905031586
 30
0.0
 11
202.0000000925783
 21
12.87572493379536
 31
0.0
  0
LINE
  5
202
330
181
100
AcDbEntity
  8
0
100
AcDbLine
 10
203.0000000925783
 20
9.999999905031586
 30
0.0
 11
203.0000000925783
 21
12.87572493379536
 31
0.0
  0
LINE
  5
203
330
181
100
AcDbEntity
  8
0
100
AcDbLine
 10
204.0000000925783
 20
9.999999905031586
 30
0.0
 11
204.0000000925783
 21
12.87572493379536
 31
0.0
  0
LINE
  5
204
330
181
100
AcDbEntity
  8
0
100
AcDbLine
 10
205.0000000925783
 20
9.999999905031586
 30
0.0
 11
205.0000000925783
 21
12.87572493379536
 31
0.0
  0
LINE
  5
205
330
181
100
AcDbEntity
  8
0
100
AcDbLine
 10
200.0000000925783
 20
9.999999905031586
 30
0.0
 11
200.0000000925783
 21
14.99999990503158
 31
0.0
  0
LINE
  5
206
330
181
100
AcDbEntity
  8
0
100
AcDbLine
 10
201.0000000925783
 20
9.999999905031586
 30
0.0
 11
201.0000000925783
 21
12.87572493379536
 31
0.0
  0
LINE
  5
207
330
181
100
AcDbEntity
  8
0
100
AcDbLine
 10
195.059562224746
 20
31.97385271834274
 30
0.0
 11
195.059562224746
 21
9.999999905031588
 31
0.0
  0
LINE
  5
208
330
181
100
AcDbEntity
  8
0
100
AcDbLine
 10
184.0068552522209
 20
30.68267628949644
 30
0.0
 11
184.0068552522209
 21
27.10330655377869
 31
0.0
  0
ARC
  5
209
330
181
100
AcDbEntity
  8
0
100
AcDbCircle
 10
181.8506052522209
 20
25.03331181806092
 30
0.0
 40
0.2587394714355469
100
AcDbArc
 50
269.9999999999997
 51
90.00000000000019
  0
ARC
  5
20A
330
181
100
AcDbEntity
  8
0
100
AcDbCircle
 10
182.7131052522209
 20
25.37830655377868
 30
0.0
 40
1.293749999999999
100
AcDbArc
 50
269.9999999999997
 51
90.00000000000019
  0
LINE
  5
20B
330
181
100
AcDbEntity
  8
0
100
AcDbLine
 10
184.0068552522209
 20
21.84206445020203
 30
0.0
 11
182.7131052522209
 21
24.08455655377869
 31
0.0
  0
LINE
  5
20C
330
181
100
AcDbEntity
  8
0
100
AcDbLine
 10
181.5174814729241
 20
21.84206445020203
 30
0.0
 11
184.0068552522209
 21
21.84206445020203
 31
0.0
  0
LINE
  5
20D
330
181
100
AcDbEntity
  8
0
100
AcDbLine
 10
178.1418657807853
 20
21.84206445020203
 30
0.0
 11
180.4706263093498
 21
21.84206445020203
 31
0.0
  0
LINE
  5
20E
330
181
100
AcDbEntity
  8
0
100
AcDbLine
 10
178.1418657807853
 20
26.67205655377868
 30
0.0
 11
178.1418657807853
 21
21.84206445020203
 31
0.0
  0
LINE
  5
20F
330
181
100
AcDbEntity
  8
0
100
AcDbLine
 10
177.7106157807854
 20
23.22205655377868
 30
0.0
 11
177.7106157807854
 21
21.84206445020203
 31
0.0
  0
LINE
  5
210
330
181
100
AcDbEntity
  8
0
100
AcDbLine
 10
177.7106157807854
 20
24.7745591859198
 30
0.0
 11
177.7106157807854
 21
23.73956181806092
 31
0.0
  0
LINE
  5
211
330
181
100
AcDbEntity
  8
0
100
AcDbLine
 10
177.7106157807854
 20
26.67205655377868
 30
0.0
 11
177.7106157807854
 21
25.29205128949647
 31
0.0
  0
LINE
  5
212
330
181
100
AcDbEntity
  8
0
100
AcDbLine
 10
180.4706263093498
 20
24.7745591859198
 30
0.0
 11
180.4706263093498
 21
25.29205128949647
 31
0.0
  0
LINE
  5
213
330
181
100
AcDbEntity
  8
0
100
AcDbLine
 10
180.4706263093498
 20
21.84206445020203
 30
0.0
 11
180.4706263093498
 21
23.73956181806092
 31
0.0
  0
LINE
  5
214
330
181
100
AcDbEntity
  8
0
100
AcDbLine
 10
182.7131052522209
 20
26.67205655377868
 30
0.0
 11
178.1418657807853
 21
26.67205655377868
 31
0.0
  0
LINE
  5
215
330
181
100
AcDbEntity
  8
0
100
AcDbLine
 10
180.4706263093498
 20
25.29205128949647
 30
0.0
 11
181.8506052522209
 21
25.29205128949647
 31
0.0
  0
LINE
  5
216
330
181
100
AcDbEntity
  8
0
100
AcDbLine
 10
181.8506052522209
 20
24.77457234662537
 30
0.0
 11
180.4706263093498
 21
24.7745591859198
 31
0.0
  0
LINE
  5
217
330
181
100
AcDbEntity
  8
0
100
AcDbLine
 10
180.4706263093498
 20
23.73956181806092
 30
0.0
 11
181.5174814729241
 21
21.84206445020203
 31
0.0
  0
LINE
  5
218
330
181
100
AcDbEntity
  8
0
100
AcDbLine
 10
184.0068552522209
 20
21.41081445020201
 30
0.0
 11
184.0068552522209
 21
19.90143945020203
 31
0.0
  0
LINE
  5
219
330
181
100
AcDbEntity
  8
0
100
AcDbLine
 10
174.4331263093498
 20
23.73956181806092
 30
0.0
 11
174.4331263093498
 21
23.22205655377868
 31
0.0
  0
LINE
  5
21A
330
181
100
AcDbEntity
  8
0
100
AcDbLine
 10
174.4331263093498
 20
25.29205128949647
 30
0.0
 11
174.4331263093498
 21
24.7745591859198
 31
0.0
  0
LINE
  5
21B
330
181
100
AcDbEntity
  8
0
100
AcDbLine
 10
172.1043657807854
 20
21.84206445020203
 30
0.0
 11
172.1043657807854
 21
26.67205655377868
 31
0.0
  0
LINE
  5
21C
330
181
100
AcDbEntity
  8
0
100
AcDbLine
 10
169.344355252221
 20
26.67205655377868
 30
0.0
 11
169.344381573632
 21
23.73956181806092
 31
0.0
  0
ARC
  5
21D
330
181
100
AcDbEntity
  8
0
100
AcDbCircle
 10
169.9481157807854
 20
23.77013413709167
 30
0.0
 40
1.724999999999999
100
AcDbArc
 50
289.093097222222
 51
0.0
  0
LINE
  5
21E
330
181
100
AcDbEntity
  8
0
100
AcDbLine
 10
171.6731157807853
 20
26.67205655377868
 30
0.0
 11
171.6731157807853
 21
23.77013413709167
 31
0.0
  0
LINE
  5
21F
330
181
100
AcDbEntity
  8
0
100
AcDbLine
 10
169.344355252221
 20
26.67205655377868
 30
0.0
 11
171.6731157807853
 21
26.67205655377868
 31
0.0
  0
ARC
  5
220
330
181
100
AcDbEntity
  8
0
100
AcDbCircle
 10
168.7406210450675
 20
23.73956181806092
 30
0.0
 40
0.6037605285644531
100
AcDbArc
 50
179.9999999999995
 51
269.9999999999997
  0
LINE
  5
221
330
181
100
AcDbEntity
  8
0
100
AcDbLine
 10
168.1368868379143
 20
26.67205655377868
 30
0.0
 11
168.1368605165031
 21
23.73956181806092
 31
0.0
  0
ARC
  5
222
330
181
100
AcDbEntity
  8
0
100
AcDbCircle
 10
167.5331263093498
 20
23.77013413709167
 30
0.0
 40
1.724992871654654
100
AcDbArc
 50
179.9999999999995
 51
250.9069055555553
  0
LINE
  5
223
330
181
100
AcDbEntity
  8
0
100
AcDbLine
 10
165.8081263093498
 20
26.67205655377868
 30
0.0
 11
168.1368868379143
 21
26.67205655377868
 31
0.0
  0
LINE
  5
224
330
181
100
AcDbEntity
  8
0
100
AcDbLine
 10
165.8081263093498
 20
23.77013413709167
 30
0.0
 11
165.8081263093498
 21
26.67205655377868
 31
0.0
  0
LINE
  5
225
330
181
100
AcDbEntity
  8
0
100
AcDbLine
 10
161.8754179505851
 20
23.73956181806092
 30
0.0
 11
162.8408083467034
 21
23.73956181806092
 31
0.0
  0
LINE
  5
226
330
181
100
AcDbEntity
  8
0
100
AcDbLine
 10
161.505786374047
 20
22.70456445020202
 30
0.0
 11
163.2104399232414
 21
22.70456445020202
 31
0.0
  0
LINE
  5
227
330
181
100
AcDbEntity
  8
0
100
AcDbLine
 10
162.8408083467034
 20
23.73956181806092
 30
0.0
 11
162.3581263093498
 21
25.09108731549744
 31
0.0
  0
LINE
  5
228
330
181
100
AcDbEntity
  8
0
100
AcDbLine
 10
161.1977468995598
 20
21.84206445020203
 30
0.0
 11
161.505786374047
 21
22.70456445020202
 31
0.0
  0
LINE
  5
229
330
181
100
AcDbEntity
  8
0
100
AcDbLine
 10
162.3581263093498
 20
25.09108731549744
 30
0.0
 11
161.8754179505851
 21
23.73956181806092
 31
0.0
  0
LINE
  5
22A
330
181
100
AcDbEntity
  8
0
100
AcDbLine
 10
163.2104399232414
 20
22.70456445020202
 30
0.0
 11
163.5184793977287
 21
21.84206445020203
 31
0.0
  0
LINE
  5
22B
330
181
100
AcDbEntity
  8
0
100
AcDbLine
 10
163.5184793977287
 20
21.84206445020203
 30
0.0
 11
165.8081263093498
 21
21.84206445020203
 31
0.0
  0
LINE
  5
22C
330
181
100
AcDbEntity
  8
0
100
AcDbLine
 10
164.0831263093498
 20
26.67205655377868
 30
0.0
 11
165.8081263093498
 21
21.84206445020203
 31
0.0
  0
ARC
  5
22D
330
181
100
AcDbEntity
  8
0
100
AcDbCircle
 10
168.7406210450675
 20
27.25858971875672
 30
0.0
 40
5.416519098287289
100
AcDbArc
 50
250.9071111111107
 51
289.0928916666664
  0
ARC
  5
22E
330
181
100
AcDbEntity
  8
0
100
AcDbCircle
 10
168.7406210450675
 20
23.73956181806092
 30
0.0
 40
0.6037605285644531
100
AcDbArc
 50
269.9999999999997
 51
0.0
  0
LINE
  5
22F
330
181
100
AcDbEntity
  8
0
100
AcDbLine
 10
158.9081263093498
 20
21.84206445020203
 30
0.0
 11
160.6331263093498
 21
26.67205655377868
 31
0.0
  0
LINE
  5
230
330
181
100
AcDbEntity
  8
0
100
AcDbLine
 10
158.9081263093498
 20
21.84206445020203
 30
0.0
 11
157.6143763093497
 21
24.08455655377869
 31
0.0
  0
LINE
  5
231
330
181
100
AcDbEntity
  8
0
100
AcDbLine
 10
155.3718973664788
 20
25.29205128949647
 30
0.0
 11
155.3718973664788
 21
24.7745591859198
 31
0.0
  0
LINE
  5
232
330
181
100
AcDbEntity
  8
0
100
AcDbLine
 10
155.3718973664788
 20
21.84206445020203
 30
0.0
 11
153.0431368379143
 21
21.84206445020203
 31
0.0
  0
LINE
  5
233
330
181
100
AcDbEntity
  8
0
100
AcDbLine
 10
155.3718973664788
 20
23.73956181806092
 30
0.0
 11
155.3718973664788
 21
21.84206445020203
 31
0.0
  0
LINE
  5
234
330
181
100
AcDbEntity
  8
0
100
AcDbLine
 10
156.418752530053
 20
21.84206445020203
 30
0.0
 11
155.3718973664788
 21
23.73956181806092
 31
0.0
  0
LINE
  5
235
330
181
100
AcDbEntity
  8
0
100
AcDbLine
 10
153.0431368379143
 20
26.67205655377868
 30
0.0
 11
153.0431368379143
 21
21.84206445020203
 31
0.0
  0
ARC
  5
236
330
181
100
AcDbEntity
  8
0
100
AcDbCircle
 10
156.7518763093497
 20
25.03331181806092
 30
0.0
 40
0.2587394714355469
100
AcDbArc
 50
269.9999999999997
 51
90.00000000000019
  0
LINE
  5
237
330
181
100
AcDbEntity
  8
0
100
AcDbLine
 10
157.6143763093497
 20
26.67205655377868
 30
0.0
 11
153.0431368379143
 21
26.67205655377868
 31
0.0
  0
ARC
  5
238
330
181
100
AcDbEntity
  8
0
100
AcDbCircle
 10
157.6143763093497
 20
25.37830655377868
 30
0.0
 40
1.293749999999999
100
AcDbArc
 50
269.9999999999997
 51
90.00000000000019
  0
LINE
  5
239
330
181
100
AcDbEntity
  8
0
100
AcDbLine
 10
156.418752530053
 20
21.84206445020203
 30
0.0
 11
158.9081263093498
 21
21.84206445020203
 31
0.0
  0
LINE
  5
23A
330
181
100
AcDbEntity
  8
0
100
AcDbLine
 10
155.3718973664788
 20
24.7745591859198
 30
0.0
 11
156.7518763093497
 21
24.77457234662537
 31
0.0
  0
LINE
  5
23B
330
181
100
AcDbEntity
  8
0
100
AcDbLine
 10
156.7518763093497
 20
25.29205128949647
 30
0.0
 11
155.3718973664788
 21
25.29205128949647
 31
0.0
  0
LINE
  5
23C
330
181
100
AcDbEntity
  8
0
100
AcDbLine
 10
147.0056368379143
 20
27.10330655377869
 30
0.0
 11
147.0056368379143
 21
30.68267628949644
 31
0.0
  0
ARC
  5
23D
330
181
100
AcDbEntity
  8
0
100
AcDbCircle
 10
150.4556368379143
 20
23.48080918591981
 30
0.0
 40
0.2587394714355469
100
AcDbArc
 50
269.9999999999997
 51
90.00000000000019
  0
ARC
  5
23E
330
181
100
AcDbEntity
  8
0
100
AcDbCircle
 10
150.4556368379143
 20
25.03331181806092
 30
0.0
 40
0.2587394714355469
100
AcDbArc
 50
269.9999999999997
 51
90.00000000000019
  0
LINE
  5
23F
330
181
100
AcDbEntity
  8
0
100
AcDbLine
 10
149.3343842057731
 20
24.7745591859198
 30
0.0
 11
150.4556368379143
 21
24.77457234662537
 31
0.0
  0
LINE
  5
240
330
181
100
AcDbEntity
  8
0
100
AcDbLine
 10
149.3343842057731
 20
25.29205128949647
 30
0.0
 11
149.3343842057731
 21
24.7745591859198
 31
0.0
  0
LINE
  5
241
330
181
100
AcDbEntity
  8
0
100
AcDbLine
 10
150.4556368379143
 20
25.29205128949647
 30
0.0
 11
149.3343842057731
 21
25.29205128949647
 31
0.0
  0
LINE
  5
242
330
181
100
AcDbEntity
  8
0
100
AcDbLine
 10
149.3343842057731
 20
23.22205655377868
 30
0.0
 11
150.4556368379143
 21
23.22206971448426
 31
0.0
  0
LINE
  5
243
330
181
100
AcDbEntity
  8
0
100
AcDbLine
 10
149.3343842057731
 20
23.73956181806092
 30
0.0
 11
149.3343842057731
 21
23.22205655377868
 31
0.0
  0
LINE
  5
244
330
181
100
AcDbEntity
  8
0
100
AcDbLine
 10
150.4556368379143
 20
23.73954865735535
 30
0.0
 11
149.3343842057731
 21
23.73956181806092
 31
0.0
  0
LINE
  5
245
330
181
100
AcDbEntity
  8
0
100
AcDbLine
 10
147.0056368379143
 20
26.67205655377868
 30
0.0
 11
147.0056368379143
 21
21.84206445020203
 31
0.0
  0
LINE
  5
246
330
181
100
AcDbEntity
  8
0
100
AcDbLine
 10
147.0056368379143
 20
21.84206445020203
 30
0.0
 11
151.5324457673575
 21
21.84272248548035
 31
0.0
  0
LINE
  5
247
330
181
100
AcDbEntity
  8
0
100
AcDbLine
 10
151.5768763093499
 20
26.67206971448425
 30
0.0
 11
147.0056368379143
 21
26.67205655377868
 31
0.0
  0
ARC
  5
248
330
181
100
AcDbEntity
  8
0
100
AcDbCircle
 10
151.5324457673575
 20
23.13645932477478
 30
0.0
 40
1.293743462739293
100
AcDbArc
 50
269.9999999999997
 51
58.92928888888903
  0
ARC
  5
249
330
181
100
AcDbEntity
  8
0
100
AcDbCircle
 10
151.5768763093499
 20
25.37831971448426
 30
0.0
 40
1.293749999999999
100
AcDbArc
 50
298.7996888888886
 51
90.00000000000019
  0
LINE
  5
24A
330
181
100
AcDbEntity
  8
0
100
AcDbLine
 10
147.0056368379143
 20
21.41081445020201
 30
0.0
 11
147.0056368379143
 21
19.90143945020203
 31
0.0
  0
LINE
  5
24B
330
181
100
AcDbEntity
  8
0
100
AcDbLine
 10
160.6331263093498
 20
26.67205655377868
 30
0.0
 11
164.0831263093498
 21
26.67205655377868
 31
0.0
  0
LINE
  5
24C
330
181
100
AcDbEntity
  8
0
100
AcDbLine
 10
158.9081263093498
 20
21.84206445020203
 30
0.0
 11
161.1977468995598
 21
21.84206445020203
 31
0.0
  0
LINE
  5
24D
330
181
100
AcDbEntity
  8
0
100
AcDbLine
 10
147.0056368379143
 20
27.10330655377869
 30
0.0
 11
184.0068552522209
 21
27.10330655377869
 31
0.0
  0
LINE
  5
24E
330
181
100
AcDbEntity
  8
0
100
AcDbLine
 10
147.0056368379143
 20
21.41081445020201
 30
0.0
 11
184.0068552522209
 21
21.41081445020201
 31
0.0
  0
LINE
  5
24F
330
181
100
AcDbEntity
  8
0
100
AcDbLine
 10
147.0056368379143
 20
19.90143945020203
 30
0.0
 11
184.0068552522209
 21
19.90143945020203
 31
0.0
  0
LINE
  5
250
330
181
100
AcDbEntity
  8
0
100
AcDbLine
 10
184.0068552522209
 20
30.68267628949644
 30
0.0
 11
147.0056368379143
 21
30.68267628949644
 31
0.0
  0
LINE
  5
251
330
181
100
AcDbEntity
  8
0
100
AcDbLine
 10
177.7106157807854
 20
21.84206445020203
 30
0.0
 11
172.1043657807854
 21
21.84206445020203
 31
0.0
  0
LINE
  5
252
330
181
100
AcDbEntity
  8
0
100
AcDbLine
 10
172.1043657807854
 20
26.67205655377868
 30
0.0
 11
177.7106157807854
 21
26.67205655377868
 31
0.0
  0
LINE
  5
253
330
181
100
AcDbEntity
  8
0
100
AcDbLine
 10
174.4331263093498
 20
23.22205655377868
 30
0.0
 11
177.7106157807854
 21
23.22205655377868
 31
0.0
  0
LINE
  5
254
330
181
100
AcDbEntity
  8
0
100
AcDbLine
 10
177.7106157807854
 20
23.73956181806092
 30
0.0
 11
174.4331263093498
 21
23.73956181806092
 31
0.0
  0
LINE
  5
255
330
181
100
AcDbEntity
  8
0
100
AcDbLine
 10
174.4331263093498
 20
24.7745591859198
 30
0.0
 11
177.7106157807854
 21
24.7745591859198
 31
0.0
  0
LINE
  5
256
330
181
100
AcDbEntity
  8
0
100
AcDbLine
 10
177.7106157807854
 20
25.29205128949647
 30
0.0
 11
174.4331263093498
 21
25.29205128949647
 31
0.0
  0
LINE
  5
257
330
181
100
AcDbEntity
  8
0
100
AcDbLine
 10
137.7386873675744
 20
9.999999905031586
 30
0.0
 11
137.7386873675744
 21
31.97385271834276
 31
0.0
  0
TEXT
  5
258
330
181
100
AcDbEntity
  8
0
100
AcDbText
 10
138.329924754358
 20
13.55553176989078
 30
0.0
 40
2.0
  1
MK1 1JP, TEL: 01908 374022, FAX: 01908 641628
  7
ISOCP
100
AcDbText
  0
TEXT
  5
259
330
181
100
AcDbEntity
  8
0
100
AcDbText
 10
138.329924754358
 20
16.88886510322413
 30
0.0
 40
2.0
  1
DAWSON ROAD,BLETCHLEY, MILTON KEYNES
  7
ISOCP
100
AcDbText
  0
LINE
  5
25A
330
181
100
AcDbEntity
  8
0
100
AcDbLine
 10
195.059562224746
 20
31.97385271834274
 30
0.0
 11
137.2845082101268
 21
31.97385271834274
 31
0.0
  0
ATTDEF
  5
25B
330
181
100
AcDbEntity
  8
0
100
AcDbText
 10
34.25063138102007
 20
16.41817106048722
 30
0.0
 40
4.0
  1

 41
0.9
  7
ISOCP
100
AcDbAttributeDefinition
  3
ENTER YEAR
  2
YEAR
 70
     0
  0
TEXT
  5
25C
330
181
100
AcDbEntity
  8
0
100
AcDbText
 10
11.6144378859536
 20
16.43665522366577
 30
0.0
 40
4.0
  1
LIMITED
  7
ISOCP
100
AcDbText
  0
TEXT
  5
25D
330
181
100
AcDbEntity
  8
0
100
AcDbText
 10
11.64367765203546
 20
23.10332189033245
 30
0.0
 40
4.0
  1
©HMC BRAUER
  7
ISOCP
100
AcDbText
  0
TEXT
  5
25E
330
181
100
AcDbEntity
  8
0
100
AcDbText
 10
53.29174716146176
 20
14.63317728701101
 30
0.0
 40
2.0
  1
PERMISSION OF HMC BRAUER LTD.
  7
ISOCP
100
AcDbText
  0
TEXT
  5
25F
330
181
100
AcDbEntity
  8
0
100
AcDbText
 10
53.3849452129957
 20
17.98041934999695
 30
0.0
 40
2.0
  1
COPIED OR DISCLOSED IN WHOLE OR IN PART WITHOUT THE WRITTEN 
  7
ISOCP
100
AcDbText
  0
TEXT
  5
260
330
181
100
AcDbEntity
  8
0
100
AcDbText
 10
53.29174716146176
 20
21.32766141298287
 30
0.0
 40
2.0
  1
OTHER THAN THAT FOR WHICH IT IS SUPPLIED AND MUST NOT BE 
  7
ISOCP
100
AcDbText
  0
TEXT
  5
261
330
181
100
AcDbEntity
  8
0
100
AcDbText
 10
53.37095975988695
 20
24.67490347596882
 30
0.0
 40
2.0
  1
SUPPLIED IN CONFIDENCE.  IT MUST NOT BE USED FOR ANY PURPOSE 
  7
ISOCP
100
AcDbText
  0
TEXT
  5
262
330
181
100
AcDbEntity
  8
0
100
AcDbText
 10
53.29174716146176
 20
28.02214553895476
 30
0.0
 40
2.0
  1
HMC BRAUER LTD OWNS THE COPYRIGHT OF THIS DRAWING WHICH IS 
  7
ISOCP
100
AcDbText
  0
LINE
  5
263
330
181
100
AcDbEntity
  8
0
100
AcDbLine
 10
137.2845082101268
 20
31.97385271834274
 30
0.0
 11
10.08568426060708
 21
31.97385271834274
 31
0.0
  0
LINE
  5
264
330
181
100
AcDbEntity
  8
0
100
AcDbLine
 10
10.00000009257836
 20
298.9999999050315
 30
0.0
 11
10.00000009257836
 21
9.999999905031586
 31
0.0
  0
LINE
  5
265
330
181
100
AcDbEntity
  8
0
100
AcDbLine
 10
410.0000000925782
 20
298.9999999050315
 30
0.0
 11
10.00000009257836
 21
298.9999999050315
 31
0.0
  0
TEXT
  5
266
330
181
100
AcDbEntity
  8
0
100
AcDbText
 10
197.6962020971678
 20
15.48755790789835
 30
0.0
 40
2.0
  1
0mm       10mm     20mm
  7
ISOCP
100
AcDbText
  0
LINE
  5
267
330
181
100
AcDbEntity
  8
0
100
AcDbLine
 10
230.0000000925783
 20
79.71077347041806
 30
0.0
 11
410.0000000925782
 21
79.71077347041806
 31
0.0
  0
ENDBLK
  5
269
330
181
100
AcDbEntity
  8
0
100
AcDbBlockEnd
  0
BLOCK
  5
33E
330
33D
100
AcDbEntity
  8
0
100
AcDbBlockBegin
  2
602-01
 70
    36
 10
0.0
 20
0.0
 30
0.0
  3
602-01
  1
X:\AMDv2\AM\602-01.dwg
  0
ENDBLK
  5
33F
330
33D
100
AcDbEntity
  8
0
100
AcDbBlockEnd
  0
BLOCK
  5
358
330
357
100
AcDbEntity
  8
0
100
AcDbBlockBegin
  2
602-02
 70
    36
 10
0.0
 20
0.0
 30
0.0
  3
602-02
  1
X:\AMDv2\AM\602-02.dwg
  0
ENDBLK
  5
359
330
357
100
AcDbEntity
  8
0
100
AcDbBlockEnd
  0
BLOCK
  5
5E3
330
5E2
100
AcDbEntity
  8
0
100
AcDbBlockBegin
  2
M6X12SHCS
 70
    36
 10
0.0
 20
0.0
 30
0.0
  3
M6X12SHCS
  1
X:\AMDv2\BOLT\M6X12SHCS.dwg
  0
ENDBLK
  5
5E4
330
5E2
100
AcDbEntity
  8
0
100
AcDbBlockEnd
  0
BLOCK
  5
754
330
753
100
AcDbEntity
  8
0
100
AcDbBlockBegin
  2
*U6
 70
     1
 10
0.0
 20
0.0
 30
0.0
  3
*U6
  1

  0
ENDBLK
  5
755
330
753
100
AcDbEntity
  8
0
100
AcDbBlockEnd
  0
BLOCK
  5
758
330
757
100
AcDbEntity
  8
0
100
AcDbBlockBegin
  2
*U7
 70
     1
 10
0.0
 20
0.0
 30
0.0
  3
*U7
  1

  0
ENDBLK
  5
759
330
757
100
AcDbEntity
  8
0
100
AcDbBlockEnd
  0
BLOCK
  5
997
330
98D
100
AcDbEntity
  8
0
100
AcDbBlockBegin
  2
*D8
 70
     1
 10
0.0
 20
0.0
 30
0.0
  3
*D8
  1

  0
LINE
  5
C72
330
98D
100
AcDbEntity
  8
AM_REFDIM
 62
     0
370
    -2
100
AcDbLine
 10
137.4188579772827
 20
157.4023183799305
 30
0.0
 11
137.4188579772827
 21
95.16447068973377
 31
0.0
  0
LINE
  5
C73
330
98D
100
AcDbEntity
  8
AM_REFDIM
 62
     0
370
    -2
100
AcDbLine
 10
57.41885797728276
 20
157.4023183799305
 30
0.0
 11
57.41885797728276
 21
95.16447068973377
 31
0.0
  0
LINE
  5
C74
330
98D
100
AcDbEntity
  8
AM_REFDIM
 62
     0
370
    -2
100
AcDbLine
 10
134.9188579772826
 20
96.41447068973377
 30
0.0
 11
59.91885797728276
 21
96.41447068973377
 31
0.0
  0
SOLID
  5
C75
330
98D
100
AcDbEntity
  8
AM_REFDIM
 62
     0
100
AcDbTrace
 10
134.9188579772826
 20
96.83113735640043
 30
0.0
 11
134.9188579772826
 21
95.99780402306713
 31
0.0
 12
137.4188579772827
 22
96.41447068973377
 32
0.0
 13
137.4188579772827
 23
96.41447068973377
 33
0.0
  0
SOLID
  5
C76
330
98D
100
AcDbEntity
  8
AM_REFDIM
 62
     0
100
AcDbTrace
 10
59.91885797728276
 20
96.83113735640043
 30
0.0
 11
59.91885797728276
 21
95.99780402306713
 31
0.0
 12
57.41885797728276
 22
96.41447068973377
 32
0.0
 13
57.41885797728276
 23
96.41447068973377
 33
0.0
  0
MTEXT
  5
C77
330
98D
100
AcDbEntity
  8
AM_REFDIM
 62
     0
100
AcDbMText
 10
97.41885797728278
 20
98.66447068973378
 30
0.0
 40
2.5
 41
0.0
 71
     5
 72
     1
  1
80.0
 73
     1
 44
1.0
  0
POINT
  5
C78
330
98D
100
AcDbEntity
  8
Defpoints
 62
     0
100
AcDbPoint
 10
137.4188579772827
 20
158.9023183799305
 30
0.0
  0
POINT
  5
C79
330
98D
100
AcDbEntity
  8
Defpoints
 62
     0
100
AcDbPoint
 10
57.41885797728276
 20
158.9023183799305
 30
0.0
  0
POINT
  5
C7A
330
98D
100
AcDbEntity
  8
Defpoints
 62
     0
100
AcDbPoint
 10
57.41885797728276
 20
96.41447068973377
 30
0.0
  0
ENDBLK
  5
998
330
98D
100
AcDbEntity
  8
0
100
AcDbBlockEnd
  0
BLOCK
  5
9B7
330
9AD
100
AcDbEntity
  8
0
100
AcDbBlockBegin
  2
*D9
 70
     1
 10
0.0
 20
0.0
 30
0.0
  3
*D9
  1

  0
LINE
  5
9BB
330
9AD
100
AcDbEntity
  8
AM_REFDIM
 62
     0
370
    -2
100
AcDbLine
 10
84.91885797728278
 20
233.9023183799305
 30
0.0
 11
29.43356255302685
 21
233.9023183799305
 31
0.0
  0
LINE
  5
9BC
330
9AD
100
AcDbEntity
  8
AM_REFDIM
 62
     0
370
    -2
100
AcDbLine
 10
84.91885797728278
 20
143.9023183799305
 30
0.0
 11
29.43356255302683
 21
143.9023183799305
 31
0.0
  0
LINE
  5
9BD
330
9AD
100
AcDbEntity
  8
AM_REFDIM
 62
     0
370
    -2
100
AcDbLine
 10
30.68356255302683
 20
231.4023183799305
 30
0.0
 11
30.68356255302683
 21
146.4023183799305
 31
0.0
  0
SOLID
  5
9BE
330
9AD
100
AcDbEntity
  8
AM_REFDIM
 62
     0
100
AcDbTrace
 10
30.26689588636017
 20
231.4023183799305
 30
0.0
 11
31.10022921969351
 21
231.4023183799305
 31
0.0
 12
30.68356255302685
 22
233.9023183799305
 32
0.0
 13
30.68356255302685
 23
233.9023183799305
 33
0.0
  0
SOLID
  5
9BF
330
9AD
100
AcDbEntity
  8
AM_REFDIM
 62
     0
100
AcDbTrace
 10
30.26689588636016
 20
146.4023183799305
 30
0.0
 11
31.10022921969349
 21
146.4023183799305
 31
0.0
 12
30.68356255302683
 22
143.9023183799305
 32
0.0
 13
30.68356255302683
 23
143.9023183799305
 33
0.0
  0
MTEXT
  5
9C0
330
9AD
100
AcDbEntity
  8
AM_REFDIM
 62
     0
100
AcDbMText
 10
28.4335625530268
 20
188.9023183799304
 30
0.0
 40
2.5
 41
0.0
 71
     5
 72
     1
  1
90.0
 11
0.0000000000000001
 21
1.0
 31
0.0
 73
     1
 44
1.0
  0
POINT
  5
9C1
330
9AD
100
AcDbEntity
  8
Defpoints
 62
     0
100
AcDbPoint
 10
86.41885797728276
 20
233.9023183799305
 30
0.0
  0
POINT
  5
9C2
330
9AD
100
AcDbEntity
  8
Defpoints
 62
     0
100
AcDbPoint
 10
86.41885797728276
 20
143.9023183799305
 30
0.0
  0
POINT
  5
9C3
330
9AD
100
AcDbEntity
  8
Defpoints
 62
     0
100
AcDbPoint
 10
30.68356255302683
 20
143.9023183799305
 30
0.0
  0
ENDBLK
  5
9B8
330
9AD
100
AcDbEntity
  8
0
100
AcDbBlockEnd
  0
BLOCK
  5
9D4
330
9CA
100
AcDbEntity
  8
0
100
AcDbBlockBegin
  2
*D10
 70
     1
 10
0.0
 20
0.0
 30
0.0
  3
*D10
  1

  0
LINE
  5
C7B
330
9CA
100
AcDbEntity
  8
AM_REFDIM
 62
     0
370
    -2
100
AcDbLine
 10
62.91885797728276
 20
218.9023183799305
 30
0.0
 11
42.62714133362988
 21
218.9023183799305
 31
0.0
  0
LINE
  5
C7C
330
9CA
100
AcDbEntity
  8
AM_REFDIM
 62
     0
370
    -2
100
AcDbLine
 10
62.91885797728276
 20
158.9023183799305
 30
0.0
 11
42.62714133362988
 21
158.9023183799305
 31
0.0
  0
LINE
  5
C7D
330
9CA
100
AcDbEntity
  8
AM_REFDIM
 62
     0
370
    -2
100
AcDbLine
 10
43.87714133362988
 20
216.4023183799304
 30
0.0
 11
43.87714133362988
 21
161.4023183799305
 31
0.0
  0
SOLID
  5
C7E
330
9CA
100
AcDbEntity
  8
AM_REFDIM
 62
     0
100
AcDbTrace
 10
43.46047466696322
 20
216.4023183799304
 30
0.0
 11
44.29380800029654
 21
216.4023183799304
 31
0.0
 12
43.87714133362988
 22
218.9023183799305
 32
0.0
 13
43.87714133362988
 23
218.9023183799305
 33
0.0
  0
SOLID
  5
C7F
330
9CA
100
AcDbEntity
  8
AM_REFDIM
 62
     0
100
AcDbTrace
 10
43.46047466696322
 20
161.4023183799305
 30
0.0
 11
44.29380800029654
 21
161.4023183799305
 31
0.0
 12
43.87714133362988
 22
158.9023183799305
 32
0.0
 13
43.87714133362988
 23
158.9023183799305
 33
0.0
  0
MTEXT
  5
C80
330
9CA
100
AcDbEntity
  8
AM_REFDIM
 62
     0
100
AcDbMText
 10
41.62714133362985
 20
188.9023183799304
 30
0.0
 40
2.5
 41
0.0
 71
     5
 72
     1
  1
60.0
 11
0.0000000000000001
 21
1.0
 31
0.0
 73
     1
 44
1.0
  0
POINT
  5
C81
330
9CA
100
AcDbEntity
  8
Defpoints
 62
     0
100
AcDbPoint
 10
64.41885797728275
 20
218.9023183799305
 30
0.0
  0
POINT
  5
C82
330
9CA
100
AcDbEntity
  8
Defpoints
 62
     0
100
AcDbPoint
 10
64.41885797728275
 20
158.9023183799305
 30
0.0
  0
POINT
  5
C83
330
9CA
100
AcDbEntity
  8
Defpoints
 62
     0
100
AcDbPoint
 10
43.87714133362988
 20
158.9023183799305
 30
0.0
  0
ENDBLK
  5
9D5
330
9CA
100
AcDbEntity
  8
0
100
AcDbBlockEnd
  0
BLOCK
  5
9F3
330
9E9
100
AcDbEntity
  8
0
100
AcDbBlockBegin
  2
*D11
 70
     1
 10
0.0
 20
0.0
 30
0.0
  3
*D11
  1

  0
LINE
  5
C84
330
9E9
100
AcDbEntity
  8
AM_REFDIM
 62
     0
370
    -2
100
AcDbLine
 10
64.41885797728275
 20
220.4023183799304
 30
0.0
 11
64.41885797728275
 21
258.4336632247261
 31
0.0
  0
LINE
  5
C85
330
9E9
100
AcDbEntity
  8
AM_REFDIM
 62
     0
370
    -2
100
AcDbLine
 10
130.4188579772826
 20
220.4023183799304
 30
0.0
 11
130.4188579772826
 21
258.4336632247261
 31
0.0
  0
LINE
  5
C86
330
9E9
100
AcDbEntity
  8
AM_REFDIM
 62
     0
370
    -2
100
AcDbLine
 10
66.91885797728275
 20
257.1836632247261
 30
0.0
 11
127.9188579772827
 21
257.1836632247261
 31
0.0
  0
SOLID
  5
C87
330
9E9
100
AcDbEntity
  8
AM_REFDIM
 62
     0
100
AcDbTrace
 10
66.91885797728275
 20
257.6003298913928
 30
0.0
 11
66.91885797728275
 21
256.7669965580595
 31
0.0
 12
64.41885797728275
 22
257.1836632247261
 32
0.0
 13
64.41885797728275
 23
257.1836632247261
 33
0.0
  0
SOLID
  5
C88
330
9E9
100
AcDbEntity
  8
AM_REFDIM
 62
     0
100
AcDbTrace
 10
127.9188579772827
 20
257.6003298913928
 30
0.0
 11
127.9188579772827
 21
256.7669965580595
 31
0.0
 12
130.4188579772826
 22
257.1836632247261
 32
0.0
 13
130.4188579772826
 23
257.1836632247261
 33
0.0
  0
MTEXT
  5
C89
330
9E9
100
AcDbEntity
  8
AM_REFDIM
 62
     0
100
AcDbMText
 10
97.41885797728278
 20
259.433663224726
 30
0.0
 40
2.5
 41
0.0
 71
     5
 72
     1
  1
66.0
 73
     1
 44
1.0
  0
POINT
  5
C8A
330
9E9
100
AcDbEntity
  8
Defpoints
 62
     0
100
AcDbPoint
 10
64.41885797728275
 20
218.9023183799305
 30
0.0
  0
POINT
  5
C8B
330
9E9
100
AcDbEntity
  8
Defpoints
 62
     0
100
AcDbPoint
 10
130.4188579772826
 20
218.9023183799305
 30
0.0
  0
POINT
  5
C8C
330
9E9
100
AcDbEntity
  8
Defpoints
 62
     0
100
AcDbPoint
 10
130.4188579772826
 20
257.1836632247261
 30
0.0
  0
ENDBLK
  5
9F4
330
9E9
100
AcDbEntity
  8
0
100
AcDbBlockEnd
  0
BLOCK
  5
A13
330
A09
100
AcDbEntity
  8
0
100
AcDbBlockBegin
  2
*D12
 70
     1
 10
0.0
 20
0.0
 30
0.0
  3
*D12
  1

  0
LINE
  5
A1A
330
A09
100
AcDbEntity
  8
AM_REFDIM
 62
     0
370
    -2
100
AcDbLine
 10
141.4188579772827
 20
192.4023183799305
 30
0.0
 11
141.4188579772827
 21
110.051617314401
 31
0.0
  0
LINE
  5
A1B
330
A09
100
AcDbEntity
  8
AM_REFDIM
 62
     0
370
    -2
100
AcDbLine
 10
97.41885797728278
 20
131.4023183799305
 30
0.0
 11
97.41885797728278
 21
110.051617314401
 31
0.0
  0
LINE
  5
A1C
330
A09
100
AcDbEntity
  8
AM_REFDIM
 62
     0
370
    -2
100
AcDbLine
 10
138.9188579772826
 20
111.301617314401
 30
0.0
 11
99.91885797728278
 21
111.301617314401
 31
0.0
  0
SOLID
  5
A1D
330
A09
100
AcDbEntity
  8
AM_REFDIM
 62
     0
100
AcDbTrace
 10
138.9188579772826
 20
111.7182839810677
 30
0.0
 11
138.9188579772826
 21
110.8849506477344
 31
0.0
 12
141.4188579772827
 22
111.301617314401
 32
0.0
 13
141.4188579772827
 23
111.301617314401
 33
0.0
  0
SOLID
  5
A1E
330
A09
100
AcDbEntity
  8
AM_REFDIM
 62
     0
100
AcDbTrace
 10
99.91885797728278
 20
111.7182839810677
 30
0.0
 11
99.91885797728278
 21
110.8849506477344
 31
0.0
 12
97.41885797728278
 22
111.301617314401
 32
0.0
 13
97.41885797728278
 23
111.301617314401
 33
0.0
  0
MTEXT
  5
A1F
330
A09
100
AcDbEntity
  8
AM_REFDIM
 62
     0
100
AcDbMText
 10
119.4188579772827
 20
113.5516173144011
 30
0.0
 40
2.5
 41
0.0
 71
     5
 72
     1
  1
44.0
 73
     1
 44
1.0
  0
POINT
  5
A20
330
A09
100
AcDbEntity
  8
Defpoints
 62
     0
100
AcDbPoint
 10
141.4188579772827
 20
193.9023183799305
 30
0.0
  0
POINT
  5
A21
330
A09
100
AcDbEntity
  8
Defpoints
 62
     0
100
AcDbPoint
 10
97.41885797728278
 20
132.9023183799305
 30
0.0
  0
POINT
  5
A22
330
A09
100
AcDbEntity
  8
Defpoints
 62
     0
100
AcDbPoint
 10
97.41885797728278
 20
111.301617314401
 30
0.0
  0
ENDBLK
  5
A14
330
A09
100
AcDbEntity
  8
0
100
AcDbBlockEnd
  0
BLOCK
  5
A33
330
A29
100
AcDbEntity
  8
0
100
AcDbBlockBegin
  2
*D13
 70
     1
 10
0.0
 20
0.0
 30
0.0
  3
*D13
  1

  0
LINE
  5
C31
330
A29
100
AcDbEntity
  8
AM_REFDIM
 62
     0
370
    -2
100
AcDbLine
 10
207.6892839644271
 20
190.4023183799305
 30
0.0
 11
207.6892839644271
 21
273.3290677792587
 31
0.0
  0
LINE
  5
C32
330
A29
100
AcDbEntity
  8
AM_REFDIM
 62
     0
370
    -2
100
AcDbLine
 10
302.5892839644271
 20
190.4023183799304
 30
0.0
 11
302.5892839644271
 21
273.3290677792587
 31
0.0
  0
LINE
  5
C33
330
A29
100
AcDbEntity
  8
AM_REFDIM
 62
     0
370
    -2
100
AcDbLine
 10
210.1892839644271
 20
272.0790677792586
 30
0.0
 11
300.0892839644271
 21
272.0790677792586
 31
0.0
  0
SOLID
  5
C34
330
A29
100
AcDbEntity
  8
AM_REFDIM
 62
     0
100
AcDbTrace
 10
210.1892839644271
 20
272.4957344459253
 30
0.0
 11
210.1892839644271
 21
271.662401112592
 31
0.0
 12
207.6892839644271
 22
272.0790677792586
 32
0.0
 13
207.6892839644271
 23
272.0790677792586
 33
0.0
  0
SOLID
  5
C35
330
A29
100
AcDbEntity
  8
AM_REFDIM
 62
     0
100
AcDbTrace
 10
300.0892839644271
 20
272.4957344459253
 30
0.0
 11
300.0892839644271
 21
271.662401112592
 31
0.0
 12
302.5892839644271
 22
272.0790677792586
 32
0.0
 13
302.5892839644271
 23
272.0790677792586
 33
0.0
  0
MTEXT
  5
C36
330
A29
100
AcDbEntity
  8
AM_REFDIM
 62
     0
100
AcDbMText
 10
255.1392839644271
 20
274.3290677792586
 30
0.0
 40
2.5
 41
0.0
 71
     5
 72
     1
  1
94.9
 73
     1
 44
1.0
  0
POINT
  5
C37
330
A29
100
AcDbEntity
  8
Defpoints
 62
     0
100
AcDbPoint
 10
207.6892839644271
 20
188.9023183799304
 30
0.0
  0
POINT
  5
C38
330
A29
100
AcDbEntity
  8
Defpoints
 62
     0
100
AcDbPoint
 10
302.5892839644271
 20
188.9023183799304
 30
0.0
  0
POINT
  5
C39
330
A29
100
AcDbEntity
  8
Defpoints
 62
     0
100
AcDbPoint
 10
302.5892839644271
 20
272.0790677792586
 30
0.0
  0
ENDBLK
  5
A34
330
A29
100
AcDbEntity
  8
0
100
AcDbBlockEnd
  0
BLOCK
  5
C9A
330
C90
100
AcDbEntity
  8
0
100
AcDbBlockBegin
  2
*D14
 70
     1
 10
0.0
 20
0.0
 30
0.0
  3
*D14
  1

  0
LINE
  5
C9C
330
C90
100
AcDbEntity
  8
AM_REFDIM
 62
     0
370
    -2
100
AcDbLine
 10
227.6892839644272
 20
227.9023183799305
 30
0.0
 11
227.6892839644272
 21
256.4213456561814
 31
0.0
  0
LINE
  5
C9D
330
C90
100
AcDbEntity
  8
AM_REFDIM
 62
     0
370
    -2
100
AcDbLine
 10
207.6892839644271
 20
227.9023183799305
 30
0.0
 11
207.6892839644271
 21
256.4213456561814
 31
0.0
  0
LINE
  5
C9E
330
C90
100
AcDbEntity
  8
AM_REFDIM
 62
     0
370
    -2
100
AcDbLine
 10
225.1892839644271
 20
255.1713456561814
 30
0.0
 11
210.1892839644271
 21
255.1713456561814
 31
0.0
  0
SOLID
  5
C9F
330
C90
100
AcDbEntity
  8
AM_REFDIM
 62
     0
100
AcDbTrace
 10
225.1892839644271
 20
255.588012322848
 30
0.0
 11
225.1892839644271
 21
254.7546789895148
 31
0.0
 12
227.6892839644272
 22
255.1713456561814
 32
0.0
 13
227.6892839644272
 23
255.1713456561814
 33
0.0
  0
SOLID
  5
CA0
330
C90
100
AcDbEntity
  8
AM_REFDIM
 62
     0
100
AcDbTrace
 10
210.1892839644271
 20
255.588012322848
 30
0.0
 11
210.1892839644271
 21
254.7546789895148
 31
0.0
 12
207.6892839644271
 22
255.1713456561814
 32
0.0
 13
207.6892839644271
 23
255.1713456561814
 33
0.0
  0
MTEXT
  5
CA1
330
C90
100
AcDbEntity
  8
AM_REFDIM
 62
     0
100
AcDbMText
 10
217.6892839644271
 20
257.4213456561814
 30
0.0
 40
2.5
 41
0.0
 71
     5
 72
     1
  1
20.0
 73
     1
 44
1.0
  0
POINT
  5
CA2
330
C90
100
AcDbEntity
  8
Defpoints
 62
     0
100
AcDbPoint
 10
227.6892839644272
 20
226.4023183799305
 30
0.0
  0
POINT
  5
CA3
330
C90
100
AcDbEntity
  8
Defpoints
 62
     0
100
AcDbPoint
 10
207.6892839644271
 20
226.4023183799305
 30
0.0
  0
POINT
  5
CA4
330
C90
100
AcDbEntity
  8
Defpoints
 62
     0
100
AcDbPoint
 10
207.6892839644271
 20
255.1713456561814
 30
0.0
  0
ENDBLK
  5
C9B
330
C90
100
AcDbEntity
  8
0
100
AcDbBlockEnd
  0
BLOCK
  5
D16
330
D0A
100
AcDbEntity
  8
0
100
AcDbBlockBegin
  2
*D15
 70
     1
 10
0.0
 20
0.0
 30
0.0
  3
*D15
  1

  0
LINE
  5
D32
330
D0A
100
AcDbEntity
  8
AM_REFDIM
 62
     0
370
    -2
100
AcDbLine
 10
227.6892839644272
 20
242.5911541882201
 30
0.0
 11
227.6892839644272
 21
256.7832852144944
 31
0.0
  0
LINE
  5
D33
330
D0A
100
AcDbEntity
  8
AM_REFDIM
 62
     0
370
    -2
100
AcDbLine
 10
233.6892839644271
 20
242.5911541882201
 30
0.0
 11
233.6892839644271
 21
256.7832852144944
 31
0.0
  0
LINE
  5
D34
330
D0A
100
AcDbEntity
  8
AM_REFDIM
 62
     0
370
    -2
100
AcDbLine
 10
225.1892839644271
 20
255.5332852144944
 30
0.0
 11
222.6892839644271
 21
255.5332852144944
 31
0.0
  0
LINE
  5
D35
330
D0A
100
AcDbEntity
  8
AM_REFDIM
 62
     0
370
    -2
100
AcDbLine
 10
236.1892839644271
 20
255.5332852144944
 30
0.0
 11
245.2726172977605
 21
255.5332852144944
 31
0.0
  0
LINE
  5
D36
330
D0A
100
AcDbEntity
  8
AM_REFDIM
 62
     0
370
    -2
100
AcDbLine
 10
227.6892839644272
 20
255.5332852144944
 30
0.0
 11
233.6892839644271
 21
255.5332852144944
 31
0.0
  0
SOLID
  5
D37
330
D0A
100
AcDbEntity
  8
AM_REFDIM
 62
     0
100
AcDbTrace
 10
225.1892839644271
 20
255.949951881161
 30
0.0
 11
225.1892839644271
 21
255.1166185478276
 31
0.0
 12
227.6892839644272
 22
255.5332852144944
 32
0.0
 13
227.6892839644272
 23
255.5332852144944
 33
0.0
  0
SOLID
  5
D38
330
D0A
100
AcDbEntity
  8
AM_REFDIM
 62
     0
100
AcDbTrace
 10
236.1892839644271
 20
255.949951881161
 30
0.0
 11
236.1892839644271
 21
255.1166185478276
 31
0.0
 12
233.6892839644271
 22
255.5332852144944
 32
0.0
 13
233.6892839644271
 23
255.5332852144944
 33
0.0
  0
MTEXT
  5
D39
330
D0A
100
AcDbEntity
  8
AM_REFDIM
 62
     0
100
AcDbMText
 10
241.9809506310938
 20
257.7832852144944
 30
0.0
 40
2.5
 41
0.0
 71
     5
 72
     1
  1
6.0
 73
     1
 44
1.0
  0
POINT
  5
D3A
330
D0A
100
AcDbEntity
  8
Defpoints
 62
     0
100
AcDbPoint
 10
227.6892839644272
 20
241.09115418822
 30
0.0
  0
POINT
  5
D3B
330
D0A
100
AcDbEntity
  8
Defpoints
 62
     0
100
AcDbPoint
 10
233.6892839644271
 20
241.09115418822
 30
0.0
  0
POINT
  5
D3C
330
D0A
100
AcDbEntity
  8
Defpoints
 62
     0
100
AcDbPoint
 10
233.6892839644271
 20
255.5332852144944
 30
0.0
  0
ENDBLK
  5
D17
330
D0A
100
AcDbEntity
  8
0
100
AcDbBlockEnd
  0
BLOCK
  5
E0A
330
E00
100
AcDbEntity
  8
0
100
AcDbBlockBegin
  2
*D16
 70
     1
 10
0.0
 20
0.0
 30
0.0
  3
*D16
  1

  0
LINE
  5
E48
330
E00
100
AcDbEntity
  8
AM_REFDIM
 62
     0
370
    -2
100
AcDbLine
 10
304.0892839644271
 20
214.5930223014711
 30
0.0
 11
330.4361934862673
 21
214.5930223014711
 31
0.0
  0
LINE
  5
E49
330
E00
100
AcDbEntity
  8
AM_REFDIM
 62
     0
370
    -2
100
AcDbLine
 10
304.0892839644271
 20
163.2116144583898
 30
0.0
 11
330.4361934862673
 21
163.2116144583898
 31
0.0
  0
LINE
  5
E4A
330
E00
100
AcDbEntity
  8
AM_REFDIM
 62
     0
370
    -2
100
AcDbLine
 10
329.1861934862673
 20
212.0930223014711
 30
0.0
 11
329.1861934862673
 21
165.7116144583898
 31
0.0
  0
SOLID
  5
E4B
330
E00
100
AcDbEntity
  8
AM_REFDIM
 62
     0
100
AcDbTrace
 10
328.7695268196006
 20
212.0930223014711
 30
0.0
 11
329.6028601529338
 21
212.0930223014711
 31
0.0
 12
329.1861934862673
 22
214.5930223014711
 32
0.0
 13
329.1861934862673
 23
214.5930223014711
 33
0.0
  0
SOLID
  5
E4C
330
E00
100
AcDbEntity
  8
AM_REFDIM
 62
     0
100
AcDbTrace
 10
328.7695268196006
 20
165.7116144583898
 30
0.0
 11
329.6028601529338
 21
165.7116144583898
 31
0.0
 12
329.1861934862673
 22
163.2116144583898
 32
0.0
 13
329.1861934862673
 23
163.2116144583898
 33
0.0
  0
MTEXT
  5
E4D
330
E00
100
AcDbEntity
  8
AM_REFDIM
 62
     0
100
AcDbMText
 10
326.9361934862672
 20
188.9023183799304
 30
0.0
 40
2.5
 41
0.0
 71
     5
 72
     1
  1
%%c51.0
 11
0.0000000000000001
 21
1.0
 31
0.0
 73
     1
 44
1.0
  0
POINT
  5
E4E
330
E00
100
AcDbEntity
  8
Defpoints
 62
     0
100
AcDbPoint
 10
302.5892839644271
 20
214.5930223014711
 30
0.0
  0
POINT
  5
E4F
330
E00
100
AcDbEntity
  8
Defpoints
 62
     0
100
AcDbPoint
 10
302.5892839644271
 20
163.2116144583898
 30
0.0
  0
POINT
  5
E50
330
E00
100
AcDbEntity
  8
Defpoints
 62
     0
100
AcDbPoint
 10
329.1861934862673
 20
163.2116144583898
 30
0.0
  0
ENDBLK
  5
E0B
330
E00
100
AcDbEntity
  8
0
100
AcDbBlockEnd
  0
BLOCK
  5
E5F
330
E55
100
AcDbEntity
  8
0
100
AcDbBlockBegin
  2
*D17
 70
     1
 10
0.0
 20
0.0
 30
0.0
  3
*D17
  1

  0
LINE
  5
E6D
330
E55
100
AcDbEntity
  8
AM_REFDIM
 62
     0
370
    -2
100
AcDbLine
 10
266.0892839644271
 20
204.9023183799305
 30
0.0
 11
312.687337395728
 21
204.9023183799305
 31
0.0
  0
LINE
  5
E6E
330
E55
100
AcDbEntity
  8
AM_REFDIM
 62
     0
370
    -2
100
AcDbLine
 10
307.0892839644272
 20
188.9023183799304
 30
0.0
 11
312.687337395728
 21
188.9023183799304
 31
0.0
  0
LINE
  5
E6F
330
E55
100
AcDbEntity
  8
AM_REFDIM
 62
     0
370
    -2
100
AcDbLine
 10
311.4373373957278
 20
202.4023183799305
 30
0.0
 11
311.4373373957278
 21
191.4023183799305
 31
0.0
  0
SOLID
  5
E70
330
E55
100
AcDbEntity
  8
AM_REFDIM
 62
     0
100
AcDbTrace
 10
311.0206707290611
 20
202.4023183799305
 30
0.0
 11
311.8540040623946
 21
202.4023183799305
 31
0.0
 12
311.4373373957278
 22
204.9023183799305
 32
0.0
 13
311.4373373957278
 23
204.9023183799305
 33
0.0
  0
SOLID
  5
E71
330
E55
100
AcDbEntity
  8
AM_REFDIM
 62
     0
100
AcDbTrace
 10
311.0206707290611
 20
191.4023183799305
 30
0.0
 11
311.8540040623946
 21
191.4023183799305
 31
0.0
 12
311.4373373957278
 22
188.9023183799304
 32
0.0
 13
311.4373373957278
 23
188.9023183799304
 33
0.0
  0
MTEXT
  5
E72
330
E55
100
AcDbEntity
  8
AM_REFDIM
 62
     0
100
AcDbMText
 10
309.1873373957278
 20
196.9023183799304
 30
0.0
 40
2.5
 41
0.0
 71
     5
 72
     1
  1
16.0
 11
0.0000000000000001
 21
1.0
 31
0.0
 73
     1
 44
1.0
  0
POINT
  5
E73
330
E55
100
AcDbEntity
  8
Defpoints
 62
     0
100
AcDbPoint
 10
264.5892839644271
 20
204.9023183799305
 30
0.0
  0
POINT
  5
E74
330
E55
100
AcDbEntity
  8
Defpoints
 62
     0
100
AcDbPoint
 10
305.5892839644271
 20
188.9023183799304
 30
0.0
  0
POINT
  5
E75
330
E55
100
AcDbEntity
  8
Defpoints
 62
     0
100
AcDbPoint
 10
311.4373373957278
 20
188.9023183799304
 30
0.0
  0
ENDBLK
  5
E60
330
E55
100
AcDbEntity
  8
0
100
AcDbBlockEnd
  0
BLOCK
  5
ED1
330
EC7
100
AcDbEntity
  8
0
100
AcDbBlockBegin
  2
*D18
 70
     1
 10
0.0
 20
0.0
 30
0.0
  3
*D18
  1

  0
LINE
  5
EE6
330
EC7
100
AcDbEntity
  8
AM_REFDIM
 62
     0
370
    -2
100
AcDbLine
 10
206.1892839644271
 20
226.4023183799305
 30
0.0
 11
197.9737323671058
 21
226.4023183799305
 31
0.0
  0
LINE
  5
EE7
330
EC7
100
AcDbEntity
  8
AM_REFDIM
 62
     0
370
    -2
100
AcDbLine
 10
206.1892839644271
 20
151.4023183799305
 30
0.0
 11
197.9737323671058
 21
151.4023183799305
 31
0.0
  0
LINE
  5
EE8
330
EC7
100
AcDbEntity
  8
AM_REFDIM
 62
     0
370
    -2
100
AcDbLine
 10
199.2237323671059
 20
223.9023183799305
 30
0.0
 11
199.2237323671059
 21
153.9023183799305
 31
0.0
  0
SOLID
  5
EE9
330
EC7
100
AcDbEntity
  8
AM_REFDIM
 62
     0
100
AcDbTrace
 10
198.8070657004391
 20
223.9023183799305
 30
0.0
 11
199.6403990337725
 21
223.9023183799305
 31
0.0
 12
199.2237323671059
 22
226.4023183799305
 32
0.0
 13
199.2237323671059
 23
226.4023183799305
 33
0.0
  0
SOLID
  5
EEA
330
EC7
100
AcDbEntity
  8
AM_REFDIM
 62
     0
100
AcDbTrace
 10
198.8070657004391
 20
153.9023183799305
 30
0.0
 11
199.6403990337725
 21
153.9023183799305
 31
0.0
 12
199.2237323671059
 22
151.4023183799305
 32
0.0
 13
199.2237323671059
 23
151.4023183799305
 33
0.0
  0
MTEXT
  5
EEB
330
EC7
100
AcDbEntity
  8
AM_REFDIM
 62
     0
100
AcDbMText
 10
196.9737323671058
 20
188.9023183799304
 30
0.0
 40
2.5
 41
0.0
 71
     5
 72
     1
  1
%%c75.0
 11
0.0000000000000001
 21
1.0
 31
0.0
 73
     1
 44
1.0
  0
POINT
  5
EEC
330
EC7
100
AcDbEntity
  8
Defpoints
 62
     0
100
AcDbPoint
 10
207.6892839644271
 20
226.4023183799305
 30
0.0
  0
POINT
  5
EED
330
EC7
100
AcDbEntity
  8
Defpoints
 62
     0
100
AcDbPoint
 10
207.6892839644271
 20
151.4023183799305
 30
0.0
  0
POINT
  5
EEE
330
EC7
100
AcDbEntity
  8
Defpoints
 62
     0
100
AcDbPoint
 10
199.2237323671059
 20
151.4023183799305
 30
0.0
  0
ENDBLK
  5
ED2
330
EC7
100
AcDbEntity
  8
0
100
AcDbBlockEnd
  0
BLOCK
  5
EFE
330
EF4
100
AcDbEntity
  8
0
100
AcDbBlockBegin
  2
*D19
 70
     1
 10
0.0
 20
0.0
 30
0.0
  3
*D19
  1

  0
LINE
  5
F00
330
EF4
100
AcDbEntity
  8
AM_REFDIM
 62
     0
370
    -2
100
AcDbLine
 10
232.1892839644271
 20
241.9023183799305
 30
0.0
 11
181.5953969567438
 21
241.9023183799305
 31
0.0
  0
LINE
  5
F01
330
EF4
100
AcDbEntity
  8
AM_REFDIM
 62
     0
370
    -2
100
AcDbLine
 10
232.1892839644271
 20
135.9023183799304
 30
0.0
 11
181.5953969567438
 21
135.9023183799304
 31
0.0
  0
LINE
  5
F02
330
EF4
100
AcDbEntity
  8
AM_REFDIM
 62
     0
370
    -2
100
AcDbLine
 10
182.8453969567438
 20
239.4023183799304
 30
0.0
 11
182.8453969567438
 21
138.4023183799305
 31
0.0
  0
SOLID
  5
F03
330
EF4
100
AcDbEntity
  8
AM_REFDIM
 62
     0
100
AcDbTrace
 10
182.4287302900771
 20
239.4023183799304
 30
0.0
 11
183.2620636234104
 21
239.4023183799304
 31
0.0
 12
182.8453969567438
 22
241.9023183799305
 32
0.0
 13
182.8453969567438
 23
241.9023183799305
 33
0.0
  0
SOLID
  5
F04
330
EF4
100
AcDbEntity
  8
AM_REFDIM
 62
     0
100
AcDbTrace
 10
182.4287302900771
 20
138.4023183799305
 30
0.0
 11
183.2620636234104
 21
138.4023183799305
 31
0.0
 12
182.8453969567438
 22
135.9023183799304
 32
0.0
 13
182.8453969567438
 23
135.9023183799304
 33
0.0
  0
MTEXT
  5
F05
330
EF4
100
AcDbEntity
  8
AM_REFDIM
 62
     0
100
AcDbMText
 10
180.5953969567438
 20
188.9023183799304
 30
0.0
 40
2.5
 41
0.0
 71
     5
 72
     1
  1
106
 11
0.0000000000000001
 21
1.0
 31
0.0
 73
     1
 44
1.0
  0
POINT
  5
F06
330
EF4
100
AcDbEntity
  8
Defpoints
 62
     0
100
AcDbPoint
 10
233.6892839644271
 20
241.9023183799305
 30
0.0
  0
POINT
  5
F07
330
EF4
100
AcDbEntity
  8
Defpoints
 62
     0
100
AcDbPoint
 10
233.6892839644271
 20
135.9023183799304
 30
0.0
  0
POINT
  5
F08
330
EF4
100
AcDbEntity
  8
Defpoints
 62
     0
100
AcDbPoint
 10
182.8453969567438
 20
135.9023183799304
 30
0.0
  0
ENDBLK
  5
EFF
330
EF4
100
AcDbEntity
  8
0
100
AcDbBlockEnd
  0
BLOCK
  5
F24
330
F1A
100
AcDbEntity
  8
0
100
AcDbBlockBegin
  2
*D20
 70
     1
 10
0.0
 20
0.0
 30
0.0
  3
*D20
  1

  0
LINE
  5
F3C
330
F1A
100
AcDbEntity
  8
AM_REFDIM
 62
     0
370
    -2
100
AcDbLine
 10
261.5892839644271
 20
206.4023183799305
 30
0.0
 11
261.5892839644271
 21
239.8632022678739
 31
0.0
  0
LINE
  5
F3D
330
F1A
100
AcDbEntity
  8
AM_REFDIM
 62
     0
370
    -2
100
AcDbLine
 10
302.5892839644271
 20
216.0930223014711
 30
0.0
 11
302.5892839644271
 21
239.8632022678739
 31
0.0
  0
LINE
  5
F3E
330
F1A
100
AcDbEntity
  8
AM_REFDIM
 62
     0
370
    -2
100
AcDbLine
 10
264.0892839644271
 20
238.613202267874
 30
0.0
 11
300.0892839644271
 21
238.613202267874
 31
0.0
  0
SOLID
  5
F3F
330
F1A
100
AcDbEntity
  8
AM_REFDIM
 62
     0
100
AcDbTrace
 10
264.0892839644271
 20
239.0298689345406
 30
0.0
 11
264.0892839644271
 21
238.1965356012073
 31
0.0
 12
261.5892839644271
 22
238.613202267874
 32
0.0
 13
261.5892839644271
 23
238.613202267874
 33
0.0
  0
SOLID
  5
F40
330
F1A
100
AcDbEntity
  8
AM_REFDIM
 62
     0
100
AcDbTrace
 10
300.0892839644271
 20
239.0298689345406
 30
0.0
 11
300.0892839644271
 21
238.1965356012073
 31
0.0
 12
302.5892839644271
 22
238.613202267874
 32
0.0
 13
302.5892839644271
 23
238.613202267874
 33
0.0
  0
MTEXT
  5
F41
330
F1A
100
AcDbEntity
  8
AM_REFDIM
 62
     0
100
AcDbMText
 10
282.0892839644272
 20
240.863202267874
 30
0.0
 40
2.5
 41
0.0
 71
     5
 72
     1
  1
41.0
 73
     1
 44
1.0
  0
POINT
  5
F42
330
F1A
100
AcDbEntity
  8
Defpoints
 62
     0
100
AcDbPoint
 10
261.5892839644271
 20
204.9023183799305
 30
0.0
  0
POINT
  5
F43
330
F1A
100
AcDbEntity
  8
Defpoints
 62
     0
100
AcDbPoint
 10
302.5892839644271
 20
214.5930223014711
 30
0.0
  0
POINT
  5
F44
330
F1A
100
AcDbEntity
  8
Defpoints
 62
     0
100
AcDbPoint
 10
302.5892839644271
 20
238.613202267874
 30
0.0
  0
ENDBLK
  5
F25
330
F1A
100
AcDbEntity
  8
0
100
AcDbBlockEnd
  0
BLOCK
  5
1107
330
1106
100
AcDbEntity
  8
0
100
AcDbBlockBegin
  2
*U51
 70
     1
 10
0.0
 20
0.0
 30
0.0
  3
*U51
  1

  0
ENDBLK
  5
1108
330
1106
100
AcDbEntity
  8
0
100
AcDbBlockEnd
  0
ENDSEC
  0
SECTION
  2
ENTITIES
  0
INSERT
  5
104A
330
1F
100
AcDbEntity
  8
0
100
AcDbBlockReference
  2
602-01
 10
-68.85255562683937
 20
139.7270779560822
 30
-69.0
  0
INSERT
  5
104B
330
1F
100
AcDbEntity
  8
0
100
AcDbBlockReference
  2
602-02
 10
-99.572358027893
 20
-135.1124956496631
 30
-190.7128760969137
210
0.0
220
-1.0
230
0.0000000000000002
  0
INSERT
  5
104C
330
1F
100
AcDbEntity
  8
0
100
AcDbBlockReference
  2
M6X12SHCS
 10
225.3659209732826
 20
24.49022447644527
 30
323.5708516706861
 50
89.99999999999998
210
1.0
220
0.0
230
0.0
  0
INSERT
  5
104D
330
1F
100
AcDbEntity
  8
0
100
AcDbBlockReference
  2
M6X12SHCS
 10
225.3659209732826
 20
24.49022447644534
 30
257.5708516706863
 50
89.99999999999998
210
1.0
220
0.0
230
0.0
  0
INSERT
  5
104E
330
1F
100
AcDbEntity
  8
0
100
AcDbBlockReference
  2
M6X12SHCS
 10
225.3659209732826
 20
-35.50977552355465
 30
323.5708516706861
 50
89.99999999999998
210
1.0
220
0.0
230
0.0
  0
INSERT
  5
104F
330
1F
100
AcDbEntity
  8
0
100
AcDbBlockReference
  2
M6X12SHCS
 10
225.3659209732826
 20
-35.50977552355465
 30
257.5708516706863
 50
89.99999999999998
210
1.0
220
0.0
230
0.0
  0
VIEWPORT
  5
106
330
1B
100
AcDbEntity
 67
     1
  8
0
100
AcDbViewport
 10
210.0029283812307
 20
154.5013506804866
 30
0.0
 40
403.4061746024145
 41
305.0971068421623
 68
     1
 69
     1
 12
210.0029283812307
 22
154.5013506804866
 13
0.0
 23
0.0
 14
10.0
 24
10.0
 15
10.0
 25
10.0
 16
0.0
 26
0.0
 36
1.0
 17
0.0
 27
0.0
 37
0.0
 42
50.0
 43
0.0
 44
0.0
 45
305.0971068421623
 50
0.0
 51
0.0
 72
   100
 90
    32800
  1

281
     0
 71
     1
 74
     0
110
0.0
120
0.0
130
0.0
111
1.0
121
0.0
131
0.0
112
0.0
122
1.0
132
0.0
 79
     0
146
0.0
  0
INSERT
  5
26A
330
1B
100
AcDbEntity
 67
     1
  8
0
100
AcDbBlockReference
 66
     1
  2
A3
 10
0.0
 20
0.0
 30
0.0
  0
ATTRIB
  5
26B
330
26A
100
AcDbEntity
 67
     1
  8
0
100
AcDbText
 10
390.1605612800056
 20
43.24700318097564
 30
0.0
 40
3.0
  1

 41
0.9
  7
ISOCP
 72
     4
 11
390.1605612800056
 21
43.24700318097564
 31
0.0
100
AcDbAttribute
  2
SCALE
 70
     0
  0
ATTRIB
  5
26C
330
26A
100
AcDbEntity
 67
     1
  8
0
100
AcDbText
 10
350.1799472381311
 20
44.00258500863901
 30
0.0
 40
3.0
  1

 41
0.9
  7
ISOCP
 72
     4
 11
350.1799472381311
 21
44.00258500863901
 31
0.0
100
AcDbAttribute
  2
DATE
 70
     0
  0
ATTRIB
  5
26D
330
26A
100
AcDbEntity
 67
     1
  8
0
100
AcDbText
 10
361.0305659850972
 20
14.02507953178792
 30
0.0
 40
3.0
  1

 41
0.9
  7
ISOCP
 72
     4
 11
361.0305659850972
 21
14.02507953178792
 31
0.0
100
AcDbAttribute
  2
DRGNO
 70
     0
  0
ATTRIB
  5
26E
330
26A
100
AcDbEntity
 67
     1
  8
0
100
AcDbText
 10
349.9626912841273
 20
33.32998865625609
 30
0.0
 40
3.0
  1

 41
0.9
  7
ISOCP
 72
     4
 11
349.9626912841273
 21
33.32998865625609
 31
0.0
100
AcDbAttribute
  2
DATE
 70
     0
  0
ATTRIB
  5
26F
330
26A
100
AcDbEntity
 67
     1
  8
0
100
AcDbText
 10
378.345959530303
 20
53.06957017967977
 30
0.0
 40
3.0
  1

 41
0.9
  7
ISOCP
 72
     4
 11
378.345959530303
 21
53.06957017967977
 31
0.0
100
AcDbAttribute
  2
CUSTOMERDRGNO/ISSUE
 70
     0
  0
ATTRIB
  5
270
330
26A
100
AcDbEntity
 67
     1
  8
0
100
AcDbText
 10
405.2011648437826
 20
12.92968419435339
 30
0.0
 40
3.0
  1

 41
0.9
  7
ISOCP
 72
     4
 11
405.2011648437826
 21
12.92968419435339
 31
0.0
100
AcDbAttribute
  2
ISSUE
 70
     0
  0
ATTRIB
  5
271
330
26A
100
AcDbEntity
 67
     1
  8
0
100
AcDbText
 10
319.0180611718588
 20
53.06957017967977
 30
0.0
 40
3.0
  1

 41
0.9
  7
ISOCP
 72
     4
 11
319.0180611718588
 21
53.06957017967977
 31
0.0
100
AcDbAttribute
  2
CUSTOMER/USEDON
 70
     0
  0
ATTRIB
  5
272
330
26A
100
AcDbEntity
 67
     1
  8
0
100
AcDbText
 10
309.9444462420058
 20
43.43589904277656
 30
0.0
 40
3.0
  1

 41
0.9
  7
ISOCP
 72
     4
 11
309.9444462420058
 21
43.43589904277656
 31
0.0
100
AcDbAttribute
  2
DRAWNBY
 70
     0
  0
ATTRIB
  5
273
330
26A
100
AcDbEntity
 67
     1
  8
0
100
AcDbText
 10
309.9444462420058
 20
33.32998865625609
 30
0.0
 40
3.0
  1

 41
0.9
  7
ISOCP
 72
     4
 11
309.9444462420058
 21
33.32998865625609
 31
0.0
100
AcDbAttribute
  2
CHECK
 70
     0
  0
ATTRIB
  5
274
330
26A
100
AcDbEntity
 67
     1
  8
0
100
AcDbText
 10
307.4964168918658
 20
12.98615431630821
 30
0.0
 40
3.0
  1

 41
0.9
  7
ISOCP
 72
     4
 11
307.4964168918658
 21
12.98615431630821
 31
0.0
100
AcDbAttribute
  2
PROJNO
 70
     0
  0
ATTRIB
  5
275
330
26A
100
AcDbEntity
 67
     1
  8
0
100
AcDbText
 10
351.0447312593758
 20
24.12627705680529
 30
0.0
 40
3.0
  1

 41
0.9
  7
ISOCP
 72
     4
 11
351.0447312593758
 21
24.12627705680529
 31
0.0
100
AcDbAttribute
  2
DESCRIPTION
 70
     0
  0
ATTRIB
  5
276
330
26A
100
AcDbEntity
 67
     1
  8
0
100
AcDbText
 10
54.06051613489558
 20
293.2287748296255
 30
0.0
 40
3.0
  1

 41
0.9
  7
ISOCP
 72
     4
 11
54.06051613489558
 21
293.2287748296255
 31
0.0
100
AcDbAttribute
  2
DRGNO
 70
     0
  0
ATTRIB
  5
277
330
26A
100
AcDbEntity
 67
     1
  8
0
100
AcDbText
 10
34.25063138102007
 20
16.41817106048722
 30
0.0
 40
4.0
  1

 41
0.9
  7
ISOCP
100
AcDbAttribute
  2
YEAR
 70
     0
  0
SEQEND
  5
278
330
26A
100
AcDbEntity
 67
     1
  8
0
  0
VIEWPORT
  5
77B
330
1B
100
AcDbEntity
 67
     1
  8
AM_VIEWS
100
AcDbViewport
 10
255.1392839644271
 20
188.9023183799304
 30
0.0
 40
104.79
 41
117.0
 68
     2
 69
     2
 12
0.0
 22
0.0
 13
0.0
 23
0.0
 14
10.0
 24
10.0
 15
10.0
 25
10.0
 16
1.0
 26
0.0
 36
0.0
 17
292.5708516706862
 27
212.1628760969138
 37
0.0000000000000355
 42
50.0
 43
0.0
 44
0.0
 45
117.0
 50
0.0
 51
0.0
 72
   100
341
B88
341
B89
341
B8A
341
B8B
341
B8C
341
B8D
341
B8E
341
10A
341
10C
341
2DF
341
35A
341
35B
341
35C
341
35D
341
35E
341
59D
341
5E5
341
5E6
341
5E7
341
77A
341
780
341
85F
341
877
341
98B
341
10
341
340
341
341
341
342
341
343
341
344
341
345
341
D96
 90
    49152
  1

281
     0
 71
     1
 74
     1
110
290.5708516706861
120
184.7128760969138
130
0.000000000000038
111
0.0
121
-1.0
131
0.0000000000000002
112
0.0
122
-0.0000000000000002
132
-1.0
 79
     0
146
0.0
  0
ARC
  5
881
330
1B
100
AcDbEntity
 67
     1
  8
AM_4
100
AcDbCircle
 10
250.5892839644271
 20
204.9023183799305
 30
0.0
 40
8.33
100
AcDbArc
 50
260.0
 51
190.0
  0
VIEWPORT
  5
88A
330
1B
100
AcDbEntity
 67
     1
  8
AM_VIEWS
100
AcDbViewport
 10
99.41885797728277
 20
188.9023183799304
 30
0.0
 40
92.79999999999997
 41
117.0
 68
     3
 69
     3
 12
0.0
 22
0.0
 13
0.0
 23
0.0
 14
10.0
 24
10.0
 15
10.0
 25
10.0
 16
0.0
 26
-1.0
 36
0.0
 17
292.5708516706862
 27
212.1628760969138
 37
0.0000000000000355
 42
50.0
 43
0.0
 44
0.0
 45
117.0
 50
0.0
 51
0.0
 72
   100
341
B88
341
B89
341
B8A
341
B8B
341
B8C
341
B8D
341
B8E
341
10A
341
10C
341
2DF
341
35A
341
35B
341
35C
341
35D
341
35E
341
59D
341
5E5
341
5E6
341
5E7
341
77A
341
780
341
85F
341
877
341
98B
341
10
341
340
341
341
341
342
341
343
341
344
341
345
341
D96
 90
    49152
  1

281
     0
 71
     1
 74
     1
110
290.5708516706861
120
184.7128760969138
130
0.000000000000038
111
0.0
121
-1.0
131
0.0000000000000002
112
0.0
122
-0.0000000000000002
132
-1.0
 79
     0
146
0.0
  0
DIMENSION
  5
98C
330
1B
100
AcDbEntity
 67
     1
  8
AM_REFDIM
100
AcDbDimension
  2
*D8
 10
57.41885797728276
 20
96.41447068973377
 30
0.0
 11
97.41885797728278
 21
98.66447068973378
 31
0.0
 70
    32
 71
     5
 42
80.0
  3
Standard
100
AcDbAlignedDimension
 13
137.4188579772827
 23
158.9023183799305
 33
0.0
 14
57.41885797728276
 24
158.9023183799305
 34
0.0
100
AcDbRotatedDimension
  0
DIMENSION
  5
9AC
102
{ACAD_REACTORS
330
B62
102
}
330
1B
100
AcDbEntity
 67
     1
  8
AM_REFDIM
100
AcDbDimension
  2
*D9
 10
30.68356255302683
 20
143.9023183799305
 30
0.0
 11
28.4335625530268
 21
188.9023183799304
 31
0.0
 70
    32
 71
     5
 42
90.0
  3
Standard
100
AcDbAlignedDimension
 13
86.41885797728276
 23
233.9023183799305
 33
0.0
 14
86.41885797728276
 24
143.9023183799305
 34
0.0
 50
90.0
100
AcDbRotatedDimension
  0
DIMENSION
  5
9C9
330
1B
100
AcDbEntity
 67
     1
  8
AM_REFDIM
100
AcDbDimension
  2
*D10
 10
43.87714133362988
 20
158.9023183799305
 30
0.0
 11
41.62714133362985
 21
188.9023183799304
 31
0.0
 70
    32
 71
     5
 42
60.0
  3
Standard
100
AcDbAlignedDimension
 13
64.41885797728275
 23
218.9023183799305
 33
0.0
 14
64.41885797728275
 24
158.9023183799305
 34
0.0
 50
90.0
100
AcDbRotatedDimension
  0
DIMENSION
  5
9E8
330
1B
100
AcDbEntity
 67
     1
  8
AM_REFDIM
100
AcDbDimension
  2
*D11
 10
130.4188579772826
 20
257.1836632247261
 30
0.0
 11
97.41885797728278
 21
259.433663224726
 31
0.0
 70
    32
 71
     5
 42
66.0
  3
Standard
100
AcDbAlignedDimension
 13
64.41885797728275
 23
218.9023183799305
 33
0.0
 14
130.4188579772826
 24
218.9023183799305
 34
0.0
100
AcDbRotatedDimension
  0
DIMENSION
  5
A08
102
{ACAD_REACTORS
330
B62
102
}
330
1B
100
AcDbEntity
 67
     1
  8
AM_REFDIM
100
AcDbDimension
  2
*D12
 10
97.41885797728278
 20
111.301617314401
 30
0.0
 11
119.4188579772827
 21
113.5516173144011
 31
0.0
 70
    32
 71
     5
 42
44.0
  3
Standard
100
AcDbAlignedDimension
 13
141.4188579772827
 23
193.9023183799305
 33
0.0
 14
97.41885797728278
 24
132.9023183799305
 34
0.0
100
AcDbRotatedDimension
  0
DIMENSION
  5
A28
330
1B
100
AcDbEntity
 67
     1
  8
AM_REFDIM
100
AcDbDimension
  2
*D13
 10
302.5892839644271
 20
272.0790677792586
 30
0.0
 11
255.1392839644271
 21
274.3290677792586
 31
0.0
 70
    32
 71
     5
 42
94.9
  3
Standard
100
AcDbAlignedDimension
 13
207.6892839644271
 23
188.9023183799304
 33
0.0
 14
302.5892839644271
 24
188.9023183799304
 34
0.0
100
AcDbRotatedDimension
  0
LINE
  5
C1A
330
1B
100
AcDbEntity
 67
     1
  8
AM_7
 60
     1
100
AcDbLine
 10
241.5892839644271
 20
188.9023183799304
 30
0.0
 11
250.5892839644271
 21
188.9023183799304
 31
0.0
  0
LINE
  5
C23
330
1B
100
AcDbEntity
 67
     1
  8
AM_7
100
AcDbLine
 10
250.5892839644271
 20
204.9023183799305
 30
0.0
 11
250.5892839644271
 21
204.9023183799305
 31
0.0
  0
LINE
  5
C24
330
1B
100
AcDbEntity
 67
     1
  8
AM_7
100
AcDbLine
 10
250.5892839644271
 20
204.9023183799305
 30
0.0
 11
250.5892839644271
 21
204.9023183799305
 31
0.0
  0
LINE
  5
C25
330
1B
100
AcDbEntity
 67
     1
  8
AM_7
100
AcDbLine
 10
236.5892839644271
 20
204.9023183799305
 30
0.0
 11
250.5892839644271
 21
204.9023183799305
 31
0.0
  0
LINE
  5
C26
330
1B
100
AcDbEntity
 67
     1
  8
AM_7
100
AcDbLine
 10
250.5892839644271
 20
204.9023183799305
 30
0.0
 11
264.5892839644271
 21
204.9023183799305
 31
0.0
  0
LINE
  5
C27
330
1B
100
AcDbEntity
 67
     1
  8
AM_7
100
AcDbLine
 10
250.5892839644271
 20
190.9023183799305
 30
0.0
 11
250.5892839644271
 21
204.9023183799305
 31
0.0
  0
LINE
  5
C28
330
1B
100
AcDbEntity
 67
     1
  8
AM_7
100
AcDbLine
 10
250.5892839644271
 20
204.9023183799305
 30
0.0
 11
250.5892839644271
 21
218.9023183799305
 31
0.0
  0
LINE
  5
C3A
330
1B
100
AcDbEntity
 67
     1
  8
AM_7
100
AcDbLine
 10
64.41885797728275
 20
158.9023183799305
 30
0.0
 11
64.41885797728275
 21
158.9023183799305
 31
0.0
  0
LINE
  5
C3B
330
1B
100
AcDbEntity
 67
     1
  8
AM_7
100
AcDbLine
 10
64.41885797728275
 20
158.9023183799305
 30
0.0
 11
64.41885797728275
 21
158.9023183799305
 31
0.0
  0
LINE
  5
C3C
330
1B
100
AcDbEntity
 67
     1
  8
AM_7
100
AcDbLine
 10
54.41885797728275
 20
158.9023183799305
 30
0.0
 11
64.41885797728275
 21
158.9023183799305
 31
0.0
  0
LINE
  5
C3D
330
1B
100
AcDbEntity
 67
     1
  8
AM_7
100
AcDbLine
 10
64.41885797728275
 20
158.9023183799305
 30
0.0
 11
74.41885797728275
 21
158.9023183799305
 31
0.0
  0
LINE
  5
C3E
330
1B
100
AcDbEntity
 67
     1
  8
AM_7
100
AcDbLine
 10
64.41885797728275
 20
148.9023183799305
 30
0.0
 11
64.41885797728275
 21
158.9023183799305
 31
0.0
  0
LINE
  5
C3F
330
1B
100
AcDbEntity
 67
     1
  8
AM_7
100
AcDbLine
 10
64.41885797728275
 20
158.9023183799305
 30
0.0
 11
64.41885797728275
 21
168.9023183799305
 31
0.0
  0
LINE
  5
C42
330
1B
100
AcDbEntity
 67
     1
  8
AM_7
100
AcDbLine
 10
64.41885797728275
 20
218.9023183799305
 30
0.0
 11
64.41885797728275
 21
218.9023183799305
 31
0.0
  0
LINE
  5
C43
330
1B
100
AcDbEntity
 67
     1
  8
AM_7
100
AcDbLine
 10
64.41885797728275
 20
218.9023183799305
 30
0.0
 11
64.41885797728275
 21
218.9023183799305
 31
0.0
  0
LINE
  5
C44
330
1B
100
AcDbEntity
 67
     1
  8
AM_7
100
AcDbLine
 10
54.41885797728275
 20
218.9023183799305
 30
0.0
 11
64.41885797728275
 21
218.9023183799305
 31
0.0
  0
LINE
  5
C45
330
1B
100
AcDbEntity
 67
     1
  8
AM_7
100
AcDbLine
 10
64.41885797728275
 20
218.9023183799305
 30
0.0
 11
74.41885797728275
 21
218.9023183799305
 31
0.0
  0
LINE
  5
C46
330
1B
100
AcDbEntity
 67
     1
  8
AM_7
100
AcDbLine
 10
64.41885797728275
 20
208.9023183799305
 30
0.0
 11
64.41885797728275
 21
218.9023183799305
 31
0.0
  0
LINE
  5
C47
330
1B
100
AcDbEntity
 67
     1
  8
AM_7
100
AcDbLine
 10
64.41885797728275
 20
218.9023183799305
 30
0.0
 11
64.41885797728275
 21
228.9023183799304
 31
0.0
  0
LINE
  5
C4A
330
1B
100
AcDbEntity
 67
     1
  8
AM_7
100
AcDbLine
 10
130.4188579772826
 20
218.9023183799305
 30
0.0
 11
130.4188579772826
 21
218.9023183799305
 31
0.0
  0
LINE
  5
C4B
330
1B
100
AcDbEntity
 67
     1
  8
AM_7
100
AcDbLine
 10
130.4188579772826
 20
218.9023183799305
 30
0.0
 11
130.4188579772826
 21
218.9023183799305
 31
0.0
  0
LINE
  5
C4C
330
1B
100
AcDbEntity
 67
     1
  8
AM_7
100
AcDbLine
 10
120.4188579772827
 20
218.9023183799305
 30
0.0
 11
130.4188579772826
 21
218.9023183799305
 31
0.0
  0
LINE
  5
C4D
330
1B
100
AcDbEntity
 67
     1
  8
AM_7
100
AcDbLine
 10
130.4188579772826
 20
218.9023183799305
 30
0.0
 11
140.4188579772827
 21
218.9023183799305
 31
0.0
  0
LINE
  5
C4E
330
1B
100
AcDbEntity
 67
     1
  8
AM_7
100
AcDbLine
 10
130.4188579772826
 20
208.9023183799305
 30
0.0
 11
130.4188579772826
 21
218.9023183799305
 31
0.0
  0
LINE
  5
C4F
330
1B
100
AcDbEntity
 67
     1
  8
AM_7
100
AcDbLine
 10
130.4188579772826
 20
218.9023183799305
 30
0.0
 11
130.4188579772826
 21
228.9023183799304
 31
0.0
  0
LINE
  5
C52
330
1B
100
AcDbEntity
 67
     1
  8
AM_7
100
AcDbLine
 10
130.4188579772826
 20
158.9023183799305
 30
0.0
 11
130.4188579772826
 21
158.9023183799305
 31
0.0
  0
LINE
  5
C53
330
1B
100
AcDbEntity
 67
     1
  8
AM_7
100
AcDbLine
 10
130.4188579772826
 20
158.9023183799305
 30
0.0
 11
130.4188579772826
 21
158.9023183799305
 31
0.0
  0
LINE
  5
C54
330
1B
100
AcDbEntity
 67
     1
  8
AM_7
100
AcDbLine
 10
120.4188579772827
 20
158.9023183799305
 30
0.0
 11
130.4188579772826
 21
158.9023183799305
 31
0.0
  0
LINE
  5
C55
330
1B
100
AcDbEntity
 67
     1
  8
AM_7
100
AcDbLine
 10
130.4188579772826
 20
158.9023183799305
 30
0.0
 11
140.4188579772827
 21
158.9023183799305
 31
0.0
  0
LINE
  5
C56
330
1B
100
AcDbEntity
 67
     1
  8
AM_7
100
AcDbLine
 10
130.4188579772826
 20
148.9023183799305
 30
0.0
 11
130.4188579772826
 21
158.9023183799305
 31
0.0
  0
LINE
  5
C57
330
1B
100
AcDbEntity
 67
     1
  8
AM_7
100
AcDbLine
 10
130.4188579772826
 20
158.9023183799305
 30
0.0
 11
130.4188579772826
 21
168.9023183799305
 31
0.0
  0
LINE
  5
C5A
330
1B
100
AcDbEntity
 67
     1
  8
AM_7
100
AcDbLine
 10
97.41885797728278
 20
143.9023183799305
 30
0.0
 11
97.41885797728278
 21
143.9023183799305
 31
0.0
  0
LINE
  5
C5B
330
1B
100
AcDbEntity
 67
     1
  8
AM_7
100
AcDbLine
 10
97.41885797728278
 20
143.9023183799305
 30
0.0
 11
97.41885797728278
 21
143.9023183799305
 31
0.0
  0
LINE
  5
C5C
330
1B
100
AcDbEntity
 67
     1
  8
AM_7
100
AcDbLine
 10
86.41885797728276
 20
143.9023183799305
 30
0.0
 11
97.41885797728278
 21
143.9023183799305
 31
0.0
  0
LINE
  5
C5D
330
1B
100
AcDbEntity
 67
     1
  8
AM_7
100
AcDbLine
 10
97.41885797728278
 20
143.9023183799305
 30
0.0
 11
108.4188579772827
 21
143.9023183799305
 31
0.0
  0
LINE
  5
C5E
330
1B
100
AcDbEntity
 67
     1
  8
AM_7
100
AcDbLine
 10
97.41885797728278
 20
132.9023183799305
 30
0.0
 11
97.41885797728278
 21
143.9023183799305
 31
0.0
  0
LINE
  5
C5F
330
1B
100
AcDbEntity
 67
     1
  8
AM_7
100
AcDbLine
 10
97.41885797728278
 20
143.9023183799305
 30
0.0
 11
97.41885797728278
 21
154.9023183799305
 31
0.0
  0
LINE
  5
C62
330
1B
100
AcDbEntity
 67
     1
  8
AM_7
100
AcDbLine
 10
97.41885797728278
 20
233.9023183799305
 30
0.0
 11
97.41885797728278
 21
233.9023183799305
 31
0.0
  0
LINE
  5
C63
330
1B
100
AcDbEntity
 67
     1
  8
AM_7
100
AcDbLine
 10
97.41885797728278
 20
233.9023183799305
 30
0.0
 11
97.41885797728278
 21
233.9023183799305
 31
0.0
  0
LINE
  5
C64
330
1B
100
AcDbEntity
 67
     1
  8
AM_7
100
AcDbLine
 10
86.41885797728276
 20
233.9023183799305
 30
0.0
 11
97.41885797728278
 21
233.9023183799305
 31
0.0
  0
LINE
  5
C65
330
1B
100
AcDbEntity
 67
     1
  8
AM_7
100
AcDbLine
 10
97.41885797728278
 20
233.9023183799305
 30
0.0
 11
108.4188579772827
 21
233.9023183799305
 31
0.0
  0
LINE
  5
C66
330
1B
100
AcDbEntity
 67
     1
  8
AM_7
100
AcDbLine
 10
97.41885797728278
 20
222.9023183799305
 30
0.0
 11
97.41885797728278
 21
233.9023183799305
 31
0.0
  0
LINE
  5
C67
330
1B
100
AcDbEntity
 67
     1
  8
AM_7
100
AcDbLine
 10
97.41885797728278
 20
233.9023183799305
 30
0.0
 11
97.41885797728278
 21
244.9023183799305
 31
0.0
  0
LINE
  5
C6A
330
1B
100
AcDbEntity
 67
     1
  8
AM_7
100
AcDbLine
 10
97.41885797728278
 20
188.9023183799304
 30
0.0
 11
97.41885797728278
 21
188.9023183799304
 31
0.0
  0
LINE
  5
C6B
330
1B
100
AcDbEntity
 67
     1
  8
AM_7
100
AcDbLine
 10
97.41885797728278
 20
188.9023183799304
 30
0.0
 11
97.41885797728278
 21
188.9023183799304
 31
0.0
  0
LINE
  5
C6C
330
1B
100
AcDbEntity
 67
     1
  8
AM_7
100
AcDbLine
 10
56.91885797728275
 20
188.9023183799304
 30
0.0
 11
97.41885797728278
 21
188.9023183799304
 31
0.0
  0
LINE
  5
C6D
330
1B
100
AcDbEntity
 67
     1
  8
AM_7
100
AcDbLine
 10
97.41885797728278
 20
188.9023183799304
 30
0.0
 11
137.9188579772826
 21
188.9023183799304
 31
0.0
  0
LINE
  5
C6E
330
1B
100
AcDbEntity
 67
     1
  8
AM_7
100
AcDbLine
 10
97.41885797728278
 20
148.4023183799305
 30
0.0
 11
97.41885797728278
 21
188.9023183799304
 31
0.0
  0
LINE
  5
C6F
330
1B
100
AcDbEntity
 67
     1
  8
AM_7
100
AcDbLine
 10
97.41885797728278
 20
188.9023183799304
 30
0.0
 11
97.41885797728278
 21
229.4023183799305
 31
0.0
  0
DIMENSION
  5
C8F
330
1B
100
AcDbEntity
 67
     1
  8
AM_REFDIM
100
AcDbDimension
  2
*D14
 10
207.6892839644271
 20
255.1713456561814
 30
0.0
 11
217.6892839644271
 21
257.4213456561814
 31
0.0
 70
    32
 71
     5
 42
20.0
  3
Standard
100
AcDbAlignedDimension
 13
227.6892839644272
 23
226.4023183799305
 33
0.0
 14
207.6892839644271
 24
226.4023183799305
 34
0.0
100
AcDbRotatedDimension
  0
DIMENSION
  5
D09
330
1B
100
AcDbEntity
 67
     1
  8
AM_REFDIM
100
AcDbDimension
  2
*D15
 10
233.6892839644271
 20
255.5332852144944
 30
0.0
 11
241.9809506310938
 21
257.7832852144944
 31
0.0
 70
    32
 71
     5
 42
6.0
  3
Standard
100
AcDbAlignedDimension
 13
227.6892839644272
 23
241.09115418822
 33
0.0
 14
233.6892839644271
 24
241.09115418822
 34
0.0
100
AcDbRotatedDimension
  0
DIMENSION
  5
DFF
330
1B
100
AcDbEntity
 67
     1
  8
AM_REFDIM
100
AcDbDimension
  2
*D16
 10
329.1861934862673
 20
163.2116144583898
 30
0.0
 11
326.9361934862672
 21
188.9023183799304
 31
0.0
 70
    32
  1
%%c<>.0
 71
     5
 42
51.38140784308132
  3
Standard
100
AcDbAlignedDimension
 13
302.5892839644271
 23
214.5930223014711
 33
0.0
 14
302.5892839644271
 24
163.2116144583898
 34
0.0
 50
90.0
100
AcDbRotatedDimension
1001
ACAD
1000
DSTYLE
1002
{
1070
   271
1070
     0
1002
}
  0
DIMENSION
  5
E54
330
1B
100
AcDbEntity
 67
     1
  8
AM_REFDIM
100
AcDbDimension
  2
*D17
 10
311.4373373957278
 20
188.9023183799304
 30
0.0
 11
309.1873373957278
 21
196.9023183799304
 31
0.0
 70
    32
 71
     5
 42
16.0
  3
Standard
100
AcDbAlignedDimension
 13
264.5892839644271
 23
204.9023183799305
 33
0.0
 14
305.5892839644271
 24
188.9023183799304
 34
0.0
 50
90.0
100
AcDbRotatedDimension
  0
LINE
  5
E77
330
1B
100
AcDbEntity
 67
     1
  8
AM_7
100
AcDbLine
 10
224.6892839644271
 20
218.9023183799305
 30
0.0
 11
249.0892839644271
 21
218.9023183799305
 31
0.0
  0
LINE
  5
E7A
330
1B
100
AcDbEntity
 67
     1
  8
AM_7
100
AcDbLine
 10
224.6892839644271
 20
158.9023183799305
 30
0.0
 11
249.0892839644271
 21
158.9023183799305
 31
0.0
  0
LINE
  5
E7D
330
1B
100
AcDbEntity
 67
     1
  8
AM_7
100
AcDbLine
 10
249.5892839644271
 20
188.9023183799304
 30
0.0
 11
305.5892839644271
 21
188.9023183799304
 31
0.0
  0
LINE
  5
E80
330
1B
100
AcDbEntity
 67
     1
  8
AM_7
100
AcDbLine
 10
230.6892839644271
 20
188.9023183799304
 30
0.0
 11
250.5892839644271
 21
188.9023183799304
 31
0.0
  0
LINE
  5
E83
330
1B
100
AcDbEntity
 67
     1
  8
AM_7
100
AcDbLine
 10
236.6892839644271
 20
233.9023183799305
 30
0.0
 11
224.6892839644271
 21
233.9023183799305
 31
0.0
  0
LINE
  5
E86
330
1B
100
AcDbEntity
 67
     1
  8
AM_7
100
AcDbLine
 10
236.6892839644271
 20
143.9023183799305
 30
0.0
 11
224.6892839644271
 21
143.9023183799305
 31
0.0
  0
LINE
  5
E89
330
1B
100
AcDbEntity
 67
     1
  8
AM_7
100
AcDbLine
 10
230.6892839644271
 20
188.9023183799304
 30
0.0
 11
204.6892839644271
 21
188.9023183799304
 31
0.0
  0
DIMENSION
  5
EC6
330
1B
100
AcDbEntity
 67
     1
  8
AM_REFDIM
100
AcDbDimension
  2
*D18
 10
199.2237323671059
 20
151.4023183799305
 30
0.0
 11
196.9737323671058
 21
188.9023183799304
 31
0.0
 70
    32
  1
%%c<>
 71
     5
 42
75.0
  3
Standard
100
AcDbAlignedDimension
 13
207.6892839644271
 23
226.4023183799305
 33
0.0
 14
207.6892839644271
 24
151.4023183799305
 34
0.0
 50
90.0
100
AcDbRotatedDimension
  0
DIMENSION
  5
EF3
330
1B
100
AcDbEntity
 67
     1
  8
AM_REFDIM
100
AcDbDimension
  2
*D19
 10
182.8453969567438
 20
135.9023183799304
 30
0.0
 11
180.5953969567438
 21
188.9023183799304
 31
0.0
 70
    32
 71
     5
 42
106.0
  3
Standard
100
AcDbAlignedDimension
 13
233.6892839644271
 23
241.9023183799305
 33
0.0
 14
233.6892839644271
 24
135.9023183799304
 34
0.0
 50
90.0
100
AcDbRotatedDimension
1001
ACAD
1000
DSTYLE
1002
{
1070
   271
1070
     0
1002
}
  0
DIMENSION
  5
F19
330
1B
100
AcDbEntity
 67
     1
  8
AM_REFDIM
100
AcDbDimension
  2
*D20
 10
302.5892839644271
 20
238.613202267874
 30
0.0
 11
282.0892839644272
 21
240.863202267874
 31
0.0
 70
    32
 71
     5
 42
41.0
  3
Standard
100
AcDbAlignedDimension
 13
261.5892839644271
 23
204.9023183799305
 33
0.0
 14
302.5892839644271
 24
214.5930223014711
 34
0.0
 50
0.0000000000000114
100
AcDbRotatedDimension
  0
ENDSEC
  0
SECTION
  2
OBJECTS
  0
DICTIONARY
  5
C
330
0
100
AcDbDictionary
281
     1
  3
ACAD_GROUP
350
D
  3
ACAD_LAYOUT
350
1A
  3
ACAD_MLINESTYLE
350
17
  3
ACAD_PLOTSETTINGS
350
19
  3
ACAD_PLOTSTYLENAME
350
E
  3
AcDbVariableDictionary
350
30
  3
AcmDictionary
350
EA
  3
AMG
350
6A
  3
AMGSNAPSETTINGS
350
133
  3
DWGPROPS
350
1118
  0
DICTIONARY
  5
10F
330
1F
100
AcDbDictionary
280
     1
281
     1
  3
ACAD_INDEX
360
110
  0
DICTIONARY
  5
D
102
{ACAD_REACTORS
330
C
102
}
330
C
100
AcDbDictionary
281
     1
  3
AM_ORPHAN_1
350
B62
  0
DICTIONARY
  5
1A
102
{ACAD_REACTORS
330
C
102
}
330
C
100
AcDbDictionary
281
     1
  3
Layout1
350
1E
  3
Model
350
22
  0
DICTIONARY
  5
17
102
{ACAD_REACTORS
330
C
102
}
330
C
100
AcDbDictionary
281
     1
  3
Standard
350
18
  0
DICTIONARY
  5
19
102
{ACAD_REACTORS
330
C
102
}
330
C
100
AcDbDictionary
281
     1
  3
A4 PLOT
350
279
  0
ACDBDICTIONARYWDFLT
  5
E
102
{ACAD_REACTORS
330
C
102
}
330
C
100
AcDbDictionary
281
     1
  3
Normal
350
F
100
AcDbDictionaryWithDefault
340
F
  0
DICTIONARY
  5
30
102
{ACAD_REACTORS
330
C
102
}
330
C
100
AcDbDictionary
281
     1
  3
INDEXCTL
350
31
  0
DICTIONARY
  5
EA
102
{ACAD_REACTORS
330
C
102
}
330
C
100
AcDbDictionary
281
     1
  3
AcmBOMDATA
350
1116
  0
DICTIONARY
  5
6A
102
{ACAD_REACTORS
330
C
102
}
330
C
100
AcDbDictionary
281
     1
  3
AcMgSettings
350
6B
  3
AMGLAYCFG
350
1120
  0
DICTIONARY
  5
133
102
{ACAD_REACTORS
330
C
102
}
330
C
100
AcDbDictionary
281
     1
  3
DIMENSION
350
138
  3
FEA
350
137
  3
HATCH (1)
350
134
  3
HATCH (2)
350
135
  3
SIMPLE WELD
350
139
  3
SYMBOLS
350
136
  0
XRECORD
  5
1118
102
{ACAD_REACTORS
330
C
102
}
330
C
100
AcDbXrecord
280
     1
  1
DWGPROPS COOKIE
  2

  3

  4

  6

  7

  8

  9

300
AmdtFileType=84
301
=
302
=
303
=
304
=
305
=
306
=
307
=
308
=
309
=
 40
0.1228312384259259
 41
2453021.359044525
 42
2453024.662038807
  1

 90
        1
  0
DICTIONARY
  5
110
102
{ACAD_REACTORS
330
10F
102
}
330
10F
100
AcDbDictionary
281
     1
  3
*A1
350
111
  0
GROUP
  5
B62
102
{ACAD_REACTORS
330
D
102
}
330
D
100
AcDbGroup
300
Layout1
 70
     0
 71
     1
340
9AC
340
A08
  0
LAYOUT
  5
1E
102
{ACAD_REACTORS
330
1A
102
}
330
1A
100
AcDbPlotSettings
  1

  2
\\HMCFILE2\Design HP lj5si
  4
A4
  6

 40
5.873749732971191
 41
5.408092021942137
 42
5.577407836914061
 43
5.069427490234375
 44
209.9733276367186
 45
296.9683227539062
 46
0.0
 47
5.849999999999998
 48
0.0
 49
0.0
140
0.0
141
0.0
142
1.0
143
1.455836788160155
 70
   692
 72
     1
 73
     1
 74
     1
  7
monochrome.ctb
 75
     0
147
0.6868901844854264
148
-9.977619036286569
149
-9.993411456145167
100
AcDbLayout
  1
Layout1
 70
     1
 71
     1
 10
-0.6488269631991859
 20
2.634989174607843
 11
420.654681763813
 21
300.6828980762912
 12
0.0
 22
0.0
 32
0.0
 14
10.00000009257836
 24
9.999999905031586
 34
0.0
 15
410.0000000925782
 25
298.9999999050315
 35
0.0
146
0.0
 13
0.0
 23
0.0
 33
0.0
 16
1.0
 26
0.0
 36
0.0
 17
0.0
 27
1.0
 37
0.0
 76
     0
330
1B
331
106
  0
LAYOUT
  5
22
102
{ACAD_REACTORS
330
1A
102
}
330
1A
100
AcDbPlotSettings
  1

  2
\\HMCFILE2\DeskLaser 2000
  4

  6

 40
0.0
 41
0.0
 42
0.0
 43
0.0
 44
0.0
 45
0.0
 46
0.0
 47
0.0
 48
0.0
 49
0.0
140
0.0
141
0.0
142
1.0
143
1.0
 70
  1712
 72
     0
 73
     0
 74
     0
  7
monochrome.ctb
 75
     0
147
1.0
148
0.0
149
0.0
100
AcDbLayout
  1
Model
 70
     1
 71
     0
 10
0.0
 20
0.0
 11
12.0
 21
9.0
 12
0.0
 22
0.0
 32
0.0
 14
0.0
 24
0.0
 34
0.0
 15
0.0
 25
0.0
 35
0.0
146
0.0
 13
0.0
 23
0.0
 33
0.0
 16
1.0
 26
0.0
 36
0.0
 17
0.0
 27
1.0
 37
0.0
 76
     0
330
1F
  0
MLINESTYLE
  5
18
102
{ACAD_REACTORS
330
17
102
}
330
17
100
AcDbMlineStyle
  2
STANDARD
 70
     0
  3

 62
   256
 51
90.0
 52
90.0
 71
     2
 49
0.5
 62
   256
  6
BYLAYER
 49
-0.5
 62
   256
  6
BYLAYER
  0
PLOTSETTINGS
  5
279
102
{ACAD_REACTORS
330
19
102
}
330
19
100
AcDbPlotSettings
  1
A4 PLOT
  2
\\HMCFILE2\DeskLaser 2000
  4
A4
  6

 40
3.174999952316283
 41
3.174999952316283
 42
3.175003051757812
 43
3.17498779296875
 44
210.0579986572264
 45
296.9259948730469
 46
2.0
 47
4.32
 48
0.0
 49
0.0
140
0.0
141
0.0
142
1.0
143
1.418883883531799
 70
   688
 72
     1
 73
     1
 74
     1
  7
monochrome.ctb
 75
     0
147
0.70477930689498
148
-9.985690423511755
149
-9.977713204227255
  0
ACDBPLACEHOLDER
  5
F
102
{ACAD_REACTORS
330
E
102
}
330
E
  0
DICTIONARYVAR
  5
31
102
{ACAD_REACTORS
330
30
102
}
330
30
100
DictionaryVariables
280
     0
  1
1
  0
ACMDATADICTIONARY
  5
1116
102
{ACAD_REACTORS
330
EA
102
}
330
EA
100
AcDbDictionary
281
     1
  3
*A1
350
1117
100
AcmDataDictionary
  0
DICTIONARY
  5
6B
102
{ACAD_REACTORS
330
6A
102
}
330
6A
100
AcDbDictionary
281
     1
  3
DWGSETTINGS
350
1061
  0
ACAMGFILTERDAT
  5
138
102
{ACAD_REACTORS
330
133
102
}
330
133
100
AcAmgFilterDat
 70
    15
  1
DIMENSION,AMDT_*_DIM
  2
*
  3
*
  4
*
  5
*
290
     1
  0
ACAMGFILTERDAT
  5
137
102
{ACAD_REACTORS
330
133
102
}
330
133
100
AcAmgFilterDat
 70
    15
  1
*
  2
AM_FEA-AM_*
  3
*
  4
*
  5
*
290
     1
  0
ACAMGFILTERDAT
  5
134
102
{ACAD_REACTORS
330
133
102
}
330
133
100
AcAmgFilterDat
 70
    15
  1
HATCH
  2
*
  3
*
  4
*
  5
*
290
     1
  0
ACAMGFILTERDAT
  5
135
102
{ACAD_REACTORS
330
133
102
}
330
133
100
AcAmgFilterDat
 70
    15
  1
LINE
  2
8,8N,*-8,*-8N,AM_8,AM_8N,*-AM_8,*-AM_8N
  3
*
  4
*
  5
INSERT,STDPART2D
290
     1
  0
ACAMGFILTERDAT
  5
139
102
{ACAD_REACTORS
330
133
102
}
330
133
100
AcAmgFilterDat
 70
    15
  1
ARC
  2
AM_5
  3
*
  4
2
  5
INSERT
290
     0
  0
ACAMGFILTERDAT
  5
136
102
{ACAD_REACTORS
330
133
102
}
330
133
100
AcAmgFilterDat
 70
    15
  1
ACMFCFRAME,ACMDATUMTARGET,ACMDATUMID,ACMWELDSYM,ACMSURFSYM,ACMFEATID,ACMPARTREF,ACMBALLOON,AMDTEDGESYM
  2
*
  3
*
  4
*
  5
*
290
     1
  0
LAYER_INDEX
  5
111
102
{ACAD_REACTORS
330
110
102
}
330
110
100
AcDbIndex
 40
2453024.663799444
100
AcDbLayerIndex
  8
0
360
112
 90
        6
  8
Unt
360
114
 90
        0
  8
Text
360
116
 90
        0
  8
Dims
360
2E0
 90
        0
  8
602-01|Unt
360
43C
 90
        0
  8
602-01|Text
360
43D
 90
        0
  8
602-01|Dims
360
43E
 90
        0
  8
Defpoints
360
43F
 90
        0
  8
602-01|AM_5
360
440
 90
        0
  8
602-01|AM_WORK
360
441
 90
        0
  8
602-02|Unt
360
442
 90
        0
  8
602-02|Text
360
443
 90
        0
  8
602-02|Dims
360
444
 90
        0
  8
602-02|AM_5
360
445
 90
        0
  8
602-02|AM_WORK
360
446
 90
        0
  8
AM_FR
360
5A4
 90
        0
  8
M6X12SHCS|UNTITLED
360
61A
 90
        0
  8
M6X12SHCS|DESIGNSPACE_DATABASE
360
61B
 90
        0
  8
M6X12SHCS|AM_WORK
360
61C
 90
        0
  8
AM_VIEWS
360
A56
 90
        0
  8
AM_VIS
360
A57
 90
        0
  8
AM_HID
360
A58
 90
        0
  8
AM_7
360
A59
 90
        0
  8
AM_4
360
A5A
 90
        0
  8
AM_REFDIM
360
A5B
 90
        0
  8
602-01|AM_VIEWS
360
F51
 90
        0
  8
602-01|AM_VIS
360
F52
 90
        0
  8
602-01|AM_HID
360
F53
 90
        0
  8
602-01|AM_7
360
F54
 90
        0
  8
602-01|AM_4
360
F55
 90
        0
  8
602-01|AM_REFDIM
360
F56
 90
        0
  8
602-01|AM_FR
360
F57
 90
        0
  8
AM_5
360
F58
 90
        0
  8
602-02|AM_VIEWS
360
103B
 90
        0
  8
602-02|AM_VIS
360
103C
 90
        0
  8
602-02|AM_HID
360
103D
 90
        0
  8
602-02|AM_7
360
103E
 90
        0
  8
602-02|AM_10
360
103F
 90
        0
  8
602-02|AM_8
360
1040
 90
        0
  8
602-02|AMV_3_HATCH
360
1041
 90
        0
  8
602-02|AM_FR
360
1042
 90
        0
  0
ACMDATAENTRYBLOCK
  5
1117
102
{ACAD_REACTORS
330
1116
102
}
330
1116
100
AcmDataEntry
100
AcmDataEntryBlock
  0
IDBUFFER
  5
112
330
0
100
AcDbIdBuffer
330
104A
330
104B
330
104C
330
104D
330
104E
330
104F
  0
IDBUFFER
  5
114
330
0
100
AcDbIdBuffer
  0
IDBUFFER
  5
116
330
0
100
AcDbIdBuffer
  0
IDBUFFER
  5
2E0
330
0
100
AcDbIdBuffer
  0
IDBUFFER
  5
43C
330
0
100
AcDbIdBuffer
  0
IDBUFFER
  5
43D
330
0
100
AcDbIdBuffer
  0
IDBUFFER
  5
43E
330
0
100
AcDbIdBuffer
  0
IDBUFFER
  5
43F
330
0
100
AcDbIdBuffer
  0
IDBUFFER
  5
440
330
0
100
AcDbIdBuffer
  0
IDBUFFER
  5
441
330
0
100
AcDbIdBuffer
  0
IDBUFFER
  5
442
330
0
100
AcDbIdBuffer
  0
IDBUFFER
  5
443
330
0
100
AcDbIdBuffer
  0
IDBUFFER
  5
444
330
0
100
AcDbIdBuffer
  0
IDBUFFER
  5
445
330
0
100
AcDbIdBuffer
  0
IDBUFFER
  5
446
330
0
100
AcDbIdBuffer
  0
IDBUFFER
  5
5A4
330
0
100
AcDbIdBuffer
  0
IDBUFFER
  5
61A
330
0
100
AcDbIdBuffer
  0
IDBUFFER
  5
61B
330
0
100
AcDbIdBuffer
  0
IDBUFFER
  5
61C
330
0
100
AcDbIdBuffer
  0
IDBUFFER
  5
A56
330
0
100
AcDbIdBuffer
  0
IDBUFFER
  5
A57
330
0
100
AcDbIdBuffer
  0
IDBUFFER
  5
A58
330
0
100
AcDbIdBuffer
  0
IDBUFFER
  5
A59
330
0
100
AcDbIdBuffer
  0
IDBUFFER
  5
A5A
330
0
100
AcDbIdBuffer
  0
IDBUFFER
  5
A5B
330
0
100
AcDbIdBuffer
  0
IDBUFFER
  5
F51
330
0
100
AcDbIdBuffer
  0
IDBUFFER
  5
F52
330
0
100
AcDbIdBuffer
  0
IDBUFFER
  5
F53
330
0
100
AcDbIdBuffer
  0
IDBUFFER
  5
F54
330
0
100
AcDbIdBuffer
  0
IDBUFFER
  5
F55
330
0
100
AcDbIdBuffer
  0
IDBUFFER
  5
F56
330
0
100
AcDbIdBuffer
  0
IDBUFFER
  5
F57
330
0
100
AcDbIdBuffer
  0
IDBUFFER
  5
F58
330
0
100
AcDbIdBuffer
  0
IDBUFFER
  5
103B
330
0
100
AcDbIdBuffer
  0
IDBUFFER
  5
103C
330
0
100
AcDbIdBuffer
  0
IDBUFFER
  5
103D
330
0
100
AcDbIdBuffer
  0
IDBUFFER
  5
103E
330
0
100
AcDbIdBuffer
  0
IDBUFFER
  5
103F
330
0
100
AcDbIdBuffer
  0
IDBUFFER
  5
1040
330
0
100
AcDbIdBuffer
  0
IDBUFFER
  5
1041
330
0
100
AcDbIdBuffer
  0
IDBUFFER
  5
1042
330
0
100
AcDbIdBuffer
  0
ENDSEC
  0
EOF
